Поиск

1966 Max Roach - Drums Unlimited (2009) {Rhino Atlantic} [24-192]

1966 Max Roach - Drums Unlimited (2009) {Rhino Atlantic} [24-192]
Стили:
Дата записи диска:
14 октября 1965 и 25 апреля 1966
Место записи:
New York City, NY, USA
Издатель (лейбл):
Носитель:
WEB
Формат:
PCM
Тип рипа:
tracks
Контейнер:
FLAC (*.flac)
Количество каналов:
mono
Разрядность/ЧД:
24/192
Битрейт аудио:
lossless
Время звучания:
00:41:33
Наличие сканов:
только обложка

01 - The Drum Also Waltzes 03:37
02 - Nommo 12:41
03 - Drums Unlimited 04:24
04 - St. Louis Blues 05:22
05 - For Big Sid 03:03
06 - In The Red (A Xmas Carol) 12:22

Состав:
  • Alto Saxophone – James Spaulding (tracks: 2, 4, 6)
  • Bass – Jymie Merritt (tracks: 2, 4, 6)
  • Drums – Max Roach
  • Piano – Ronnie Mathews (tracks: 2, 4, 6)
  • Trumpet – Freddie Hubbard (tracks: 2, 4, 6)
  • Roland Alexander, soprano saxophone (track 4)
  • Engineer [Recording] – Phil Iehle, Robert Wright (10), Tom Dowd
  • Liner Notes – Nat Hentoff
Лог проверки качества
foobar2000 1.4.3 / Dynamic Range Meter 1.1.1
log date: 2022-01-29 14:45:34
--------------------------------------------------------------------------------
Analyzed: Max Roach, Max Roach, Max Roach, Max Roach, Max Roach, Max Roach, Max Roach, Max Roach, Max Roach / Drums Unlimited (Mono) (1-2)
          Max Roach, Max Roach, Max Roach, Max Roach, Max Roach, Max Roach / Drums Unlimited (Mono) (3-5)
          William Christopher Handy, William Christopher Handy, William Christopher Handy, William Christopher Handy, William Christopher Handy, William Christopher Handy / Drums Unlimited (Mono) (6)
--------------------------------------------------------------------------------
DR         Peak         RMS     Duration Track
--------------------------------------------------------------------------------
DR9       -6.01 dB   -17.24 dB     12:41 02-Nommo
DR9       -6.01 dB   -17.70 dB     12:22 06-In the Red (A Xmas Carol)
DR11      -6.01 dB   -21.77 dB      3:38 01-The Drum Also Waltzes
DR8       -6.01 dB   -17.67 dB      4:25 03-Drums Unlimited
DR10      -6.01 dB   -17.96 dB      3:04 05-For Big Sid
DR6       -6.01 dB   -15.05 dB      5:23 04-St. Louis Blues
--------------------------------------------------------------------------------
Number of tracks:  6
Official DR value: DR9
Samplerate:        192000 Hz
Channels:          2
Bits per sample:   24
Bitrate:           3081 kbps
Codec:             FLAC
================================================================================
18:25
504
Нет комментариев. Ваш будет первым!