Поиск

1966 Brother Jack McDuff - Tobacco Road (2012) {Atlantic/Rhino/Warner Japan/WEA WPCR-27068}

1966 Brother Jack McDuff - Tobacco Road (2012) {Atlantic/Rhino/Warner Japan/WEA  WPCR-27068}
Стили:
Издатель (лейбл):
Треклист:
Носитель: CD
Год издания: 2012
Номер по каталогу: WPCR-27068
Аудиокодек: FLAC (*.flac)
Тип рипа: tracks+.cue
Битрейт аудио: lossless
Продолжительность: 34:24
Rip by ruskaval
Наличие сканов в содержимом раздачи: да
Треклист:
01. Teardrops From My Eyes (2:07)
02. Tobacco Road (2:59)
03. The Shadow Of Your Smile (3:55)
04. Can't Get Satisfied (5:15)
05. Blowin' In The Wind (2:42)
06. And The Angels Sing (4:14)
07. This Bitter Earth (2:38)
08. Alexander's Ragtime Band (5:59)
09. Wade In The Water (4:37)
 
Лог создания рипа
Exact Audio Copy V1.1 from 23. June 2015
EAC extraction logfile from 4. March 2016, 19:40
Brother Jack McDuff / Tobacco Road
Used drive  : TSSTcorpCDDVDW SE-208DB   Adapter: 1  ID: 0
Read mode               : Secure
Utilize accurate stream : Yes
Defeat audio cache      : Yes
Make use of C2 pointers : No
Read offset correction                      : 6
Overread into Lead-In and Lead-Out          : No
Fill up missing offset samples with silence : Yes
Delete leading and trailing silent blocks   : No
Null samples used in CRC calculations       : Yes
Used interface                              : Native Win32 interface for Win NT & 2000
Gap handling                                : Appended to previous track
Used output format              : User Defined Encoder
Selected bitrate                : 1024 kBit/s
Quality                         : High
Add ID3 tag                     : No
Command line compressor         : C:\Program Files (x86)\FLAC Frontend\tools\flac.exe
Additional command line options : -8 -V -T "ARTIST=%artist%" -T "TITLE=%title%" -T "ALBUM=%albumtitle%" -T "DATE=%year%" -T "TRACKNUMBER=%tracknr%" -T "TOTALTRACKS=%numtracks%" -T "GENRE=%genre%" -T "ALBUMARTIST=%albumartist%" -T "ALBUM ARTIST=%albumartist%" -T "COMMENT=EAC Secure Mode, Test & Copy, AccurateRip, FLAC -8" %source%
TOC of the extracted CD
     Track |   Start  |  Length  | Start sector | End sector
    ---------------------------------------------------------
        1  |  0:00.00 |  2:07.09 |         0    |     9533
        2  |  2:07.09 |  2:59.06 |      9534    |    22964
        3  |  5:06.15 |  3:55.03 |     22965    |    40592
        4  |  9:01.18 |  5:14.39 |     40593    |    64181
        5  | 14:15.57 |  2:41.39 |     64182    |    76295
        6  | 16:57.21 |  4:14.18 |     76296    |    95363
        7  | 21:11.39 |  2:37.48 |     95364    |   107186
        8  | 23:49.12 |  5:58.42 |    107187    |   134078
        9  | 29:47.54 |  4:36.55 |    134079    |   154833
Track  1
     Filename D:\_EAC\Brother Jack McDuff - Tobacco Road (1966) [FLAC] {WPCR-27068}\01 - Teardrops From My Eyes.wav
     Pre-gap length  0:00:02.00
     Peak level 100.0 %
     Extraction speed 1.6 X
     Track quality 99.9 %
     Test CRC A3060868
     Copy CRC A3060868
     Accurately ripped (confidence 2)  [9600FAB7]  (AR v2)
     Copy OK
Track  2
     Filename D:\_EAC\Brother Jack McDuff - Tobacco Road (1966) [FLAC] {WPCR-27068}\02 - Tobacco Road.wav
     Pre-gap length  0:00:02.48
     Peak level 100.0 %
     Extraction speed 2.6 X
     Track quality 100.0 %
     Test CRC ECD5D8E8
     Copy CRC ECD5D8E8
     Accurately ripped (confidence 2)  [05001999]  (AR v2)
     Copy OK
Track  3
     Filename D:\_EAC\Brother Jack McDuff - Tobacco Road (1966) [FLAC] {WPCR-27068}\03 - The Shadow Of Your Smile.wav
     Pre-gap length  0:00:01.36
     Peak level 100.0 %
     Extraction speed 2.4 X
     Track quality 99.9 %
     Test CRC 0F39F565
     Copy CRC 0F39F565
     Accurately ripped (confidence 2)  [54EDFD25]  (AR v2)
     Copy OK
Track  4
     Filename D:\_EAC\Brother Jack McDuff - Tobacco Road (1966) [FLAC] {WPCR-27068}\04 - Can't Get Satisfied.wav
     Pre-gap length  0:00:01.72
     Peak level 100.0 %
     Extraction speed 3.3 X
     Track quality 100.0 %
     Test CRC 7C6E0481
     Copy CRC 7C6E0481
     Accurately ripped (confidence 2)  [329052A4]  (AR v2)
     Copy OK
Track  5
     Filename D:\_EAC\Brother Jack McDuff - Tobacco Road (1966) [FLAC] {WPCR-27068}\05 - Blowin' In The Wind.wav
     Pre-gap length  0:00:02.48
     Peak level 98.9 %
     Extraction speed 3.2 X
     Track quality 100.0 %
     Test CRC B48DA1C1
     Copy CRC B48DA1C1
     Accurately ripped (confidence 2)  [6922556A]  (AR v2)
     Copy OK
Track  6
     Filename D:\_EAC\Brother Jack McDuff - Tobacco Road (1966) [FLAC] {WPCR-27068}\06 - And The Angels Sing.wav
     Pre-gap length  0:00:02.42
     Peak level 95.5 %
     Extraction speed 3.6 X
     Track quality 100.0 %
     Test CRC BBE1E97E
     Copy CRC BBE1E97E
     Accurately ripped (confidence 2)  [065179E3]  (AR v2)
     Copy OK
Track  7
     Filename D:\_EAC\Brother Jack McDuff - Tobacco Road (1966) [FLAC] {WPCR-27068}\07 - This Bitter Earth.wav
     Pre-gap length  0:00:01.54
     Peak level 100.0 %
     Extraction speed 3.5 X
     Track quality 100.0 %
     Test CRC 756C9872
     Copy CRC 756C9872
     Accurately ripped (confidence 2)  [C27849F2]  (AR v2)
     Copy OK
Track  8
     Filename D:\_EAC\Brother Jack McDuff - Tobacco Road (1966) [FLAC] {WPCR-27068}\08 - Alexander's Ragtime Band.wav
     Pre-gap length  0:00:01.30
     Peak level 99.5 %
     Extraction speed 3.6 X
     Track quality 99.9 %
     Test CRC 94E382E9
     Copy CRC 94E382E9
     Accurately ripped (confidence 2)  [95436AA3]  (AR v2)
     Copy OK
Track  9
     Filename D:\_EAC\Brother Jack McDuff - Tobacco Road (1966) [FLAC] {WPCR-27068}\09 - Wade In The Water.wav
     Pre-gap length  0:00:01.48
     Peak level 99.1 %
     Extraction speed 4.3 X
     Track quality 100.0 %
     Test CRC 6CBA3383
     Copy CRC 6CBA3383
     Accurately ripped (confidence 2)  [6B605059]  (AR v2)
     Copy OK
All tracks accurately ripped
No errors occurred
End of status report
==== Log checksum 57E5A4CF748D6F7DAF10795F768FE878836C69B79FEEFA7E5C8A3A58669FF7AB ====
 
Содержание индексной карты (.CUE)
REM GENRE Jazz
REM DATE 1966
REM DISCID 73081009
REM COMMENT "ExactAudioCopy v1.1"
PERFORMER "Brother Jack McDuff"
TITLE "Tobacco Road"
FILE "01 - Teardrops From My Eyes.wav" WAVE
  TRACK 01 AUDIO
    TITLE "Teardrops From My Eyes"
    PERFORMER "Brother Jack McDuff"
    INDEX 01 00:00:00
  TRACK 02 AUDIO
    TITLE "Tobacco Road"
    PERFORMER "Brother Jack McDuff"
    INDEX 00 02:04:36
FILE "02 - Tobacco Road.wav" WAVE
    INDEX 01 00:00:00
  TRACK 03 AUDIO
    TITLE "The Shadow Of Your Smile"
    PERFORMER "Brother Jack McDuff"
    INDEX 00 02:57:45
FILE "03 - The Shadow Of Your Smile.wav" WAVE
    INDEX 01 00:00:00
  TRACK 04 AUDIO
    TITLE "Can't Get Satisfied"
    PERFORMER "Brother Jack McDuff"
    INDEX 00 03:53:06
FILE "04 - Can't Get Satisfied.wav" WAVE
    INDEX 01 00:00:00
  TRACK 05 AUDIO
    TITLE "Blowin' In The Wind"
    PERFORMER "Brother Jack McDuff"
    INDEX 00 05:11:66
FILE "05 - Blowin' In The Wind.wav" WAVE
    INDEX 01 00:00:00
  TRACK 06 AUDIO
    TITLE "And The Angels Sing"
    PERFORMER "Brother Jack McDuff"
    INDEX 00 02:38:72
FILE "06 - And The Angels Sing.wav" WAVE
    INDEX 01 00:00:00
  TRACK 07 AUDIO
    TITLE "This Bitter Earth"
    PERFORMER "Brother Jack McDuff"
    INDEX 00 04:12:39
FILE "07 - This Bitter Earth.wav" WAVE
    INDEX 01 00:00:00
  TRACK 08 AUDIO
    TITLE "Alexander's Ragtime Band"
    PERFORMER "Brother Jack McDuff"
    INDEX 00 02:36:18
FILE "08 - Alexander's Ragtime Band.wav" WAVE
    INDEX 01 00:00:00
  TRACK 09 AUDIO
    TITLE "Wade In The Water"
    PERFORMER "Brother Jack McDuff"
    INDEX 00 05:56:69
FILE "09 - Wade In The Water.wav" WAVE
    INDEX 01 00:00:00
Приватный:
Нет (DHT включён)
Размер:
362.18 Мб (379,776,664 байт) » файлов: 22
Участники:
0 раздают, 0 качают (0 участников всего)
Внешние участники:
--- [ Обновить ]
No seeders - write a personal message to user M0p94ok. Нет сидеров - пишите личное сообщение пользователю M0p94ok.
23:54
177
Нет комментариев. Ваш будет первым!