Поиск

1966 (2017) Wynton Kelly Trio & Wes Montgomery - Smokin' In Seattle: Live At The Penthouse

1966 (2017) Wynton Kelly Trio & Wes Montgomery - Smokin' In Seattle: Live At The Penthouse
Страна-производитель диска (релиза):
USA
Дата записи диска:
14 и 21 апреля 1966
Дата издания диска:
2017
Номер по каталогу:
HCD-2029
Носитель:
CD
Битрейт аудио:
lossless
Аудиокодек:
FLAC (*.flac)
Тип рипа:
tracks+.cue
Время звучания:
54:06
Наличие сканов:
  • да
Релизёр (источник):
ruskaval
Состав:
  • Wynton Kelly — p
  • Ron McClure — b
  • Jimmy Cobb — d
  • Wes Montgomery — g
Rec.: live at the Penthouse Jazz Club, Seattle, WA, April 14 and 21, 1966.

01. There Is No Greater Love (8:19)
02. Not A Tear (6:32)
03. Jingles (4:32)
04. What's New? (4:51)
05. Blues In F (2:47)
06. Sir John (8:39)
07. If You Could See Me Now (5:57)
08. West Coast Blues (4:02)
09. O Morro Nao Tem Vez (6:16)
10. Oleo (2:10)

Лог создания рипа
<spoiler title="Лог создания рипа"><pre>Exact Audio Copy V1.3 from 2. September 2016
EAC extraction logfile from 7. June 2017, 9:12
Wynton Kelly Trio & Wes Montgomery / Smokin’ In Seattle: Live At The Penthouse
Used drive : TSSTcorpCDDVDW SE-208DB Adapter: 1 ID: 1
Read mode : Secure
Utilize accurate stream : Yes
Defeat audio cache : Yes
Make use of C2 pointers : No
Read offset correction : 6
Overread into Lead-In and Lead-Out : No
Fill up missing offset samples with silence : Yes
Delete leading and trailing silent blocks : No
Null samples used in CRC calculations : Yes
Used interface : Native Win32 interface for Win NT & 2000
Gap handling : Appended to previous track
Used output format : User Defined Encoder
Selected bitrate : 1024 kBit/s
Quality : High
Add ID3 tag : No
Command line compressor : C:\Program Files (x86)\FLAC Frontend\tools\flac.exe
Additional command line options : -8 -V -T "ARTIST=%artist%" -T "TITLE=%title%" -T "ALBUM=%albumtitle%" -T "DATE=%year%" -T "TRACKNUMBER=%tracknr%" -T "TOTALTRACKS=%numtracks%" -T "GENRE=%genre%" -T "ALBUMARTIST=%albumartist%" -T "ALBUM ARTIST=%albumartist%" -T "COMMENT=EAC Secure Mode, Test & Copy, AccurateRip, FLAC -8" %source%
TOC of the extracted CD Track | Start | Length | Start sector | End sector --------------------------------------------------------- 1 | 0:00.00 | 8:18.74 | 0 | 37423 2 | 8:18.74 | 6:32.28 | 37424 | 66851 3 | 14:51.27 | 4:32.33 | 66852 | 87284 4 | 19:23.60 | 4:51.30 | 87285 | 109139 5 | 24:15.15 | 2:47.03 | 109140 | 121667 6 | 27:02.18 | 8:39.25 | 121668 | 160617 7 | 35:41.43 | 5:56.40 | 160618 | 187357 8 | 41:38.08 | 4:02.07 | 187358 | 205514 9 | 45:40.15 | 6:15.44 | 205515 | 233683 10 | 51:55.59 | 2:09.57 | 233684 | 243415
Track 1 Filename D:\_EAC\Wynton Kelly Trio & Wes Montgomery - Smokin' In Seattle (2017) [FLAC]\01 - There Is No Greater Love.wav Pre-gap length 0:00:02.00 Peak level 85.7 % Extraction speed 2.8 X Track quality 99.9 % Test CRC 253D59FB Copy CRC 253D59FB Track not present in AccurateRip database Copy OK
Track 2 Filename D:\_EAC\Wynton Kelly Trio & Wes Montgomery - Smokin' In Seattle (2017) [FLAC]\02 - Not A Tear.wav Peak level 89.5 % Extraction speed 3.2 X Track quality 99.9 % Test CRC A56AEE05 Copy CRC A56AEE05 Track not present in AccurateRip database Copy OK
Track 3 Filename D:\_EAC\Wynton Kelly Trio & Wes Montgomery - Smokin' In Seattle (2017) [FLAC]\03 - Jingles.wav Peak level 85.6 % Extraction speed 3.9 X Track quality 100.0 % Test CRC 17D7B7C0 Copy CRC 17D7B7C0 Track not present in AccurateRip database Copy OK
Track 4 Filename D:\_EAC\Wynton Kelly Trio & Wes Montgomery - Smokin' In Seattle (2017) [FLAC]\04 - What's New_.wav Peak level 89.5 % Extraction speed 4.1 X Track quality 100.0 % Test CRC FA14C6A3 Copy CRC FA14C6A3 Track not present in AccurateRip database Copy OK
Track 5 Filename D:\_EAC\Wynton Kelly Trio & Wes Montgomery - Smokin' In Seattle (2017) [FLAC]\05 - Blues In F.wav Peak level 70.5 % Extraction speed 3.9 X Track quality 100.0 % Test CRC DC0A9513 Copy CRC DC0A9513 Track not present in AccurateRip database Copy OK
Track 6 Filename D:\_EAC\Wynton Kelly Trio & Wes Montgomery - Smokin' In Seattle (2017) [FLAC]\06 - Sir John.wav Peak level 89.5 % Extraction speed 4.8 X Track quality 100.0 % Test CRC 4AFF2561 Copy CRC 4AFF2561 Track not present in AccurateRip database Copy OK
Track 7 Filename D:\_EAC\Wynton Kelly Trio & Wes Montgomery - Smokin' In Seattle (2017) [FLAC]\07 - If You Could See Me Now.wav Peak level 82.1 % Extraction speed 4.2 X Track quality 99.9 % Test CRC 602E2995 Copy CRC 602E2995 Track not present in AccurateRip database Copy OK
Track 8 Filename D:\_EAC\Wynton Kelly Trio & Wes Montgomery - Smokin' In Seattle (2017) [FLAC]\08 - West Coast Blues.wav Peak level 89.5 % Extraction speed 4.9 X Track quality 100.0 % Test CRC 599C0226 Copy CRC 599C0226 Track not present in AccurateRip database Copy OK
Track 9 Filename D:\_EAC\Wynton Kelly Trio & Wes Montgomery - Smokin' In Seattle (2017) [FLAC]\09 - O Morro Nao Tem Vez.wav Peak level 74.5 % Extraction speed 5.4 X Track quality 100.0 % Test CRC 77009A93 Copy CRC 77009A93 Track not present in AccurateRip database Copy OK
Track 10 Filename D:\_EAC\Wynton Kelly Trio & Wes Montgomery - Smokin' In Seattle (2017) [FLAC]\10 - Oleo.wav Peak level 73.1 % Extraction speed 4.6 X Track quality 100.0 % Test CRC 7DC559AA Copy CRC 7DC559AA Track not present in AccurateRip database Copy OK
None of the tracks are present in the AccurateRip database
No errors occurred
End of status report
---- CUETools DB Plugin V2.1.6
[CTDB TOCID: jTKN20BFZIil367.BuGZZDC6_oE-] found
Submit result: jTKN20BFZIil367.BuGZZDC6_oE- has been confirmed
Track | CTDB Status 1 | (11/11) Accurately ripped 2 | (11/11) Accurately ripped 3 | (11/11) Accurately ripped 4 | (11/11) Accurately ripped 5 | (11/11) Accurately ripped 6 | (11/11) Accurately ripped 7 | (11/11) Accurately ripped 8 | (11/11) Accurately ripped 9 | (11/11) Accurately ripped 10 | (11/11) Accurately ripped
==== Log checksum 8DFB5F8B9135D8CFA9CCF0BA2E04322537254C1DA4AA3D22CA59533CD6617FA5 ====</pre></spoiler>
Содержание индексной карты (.CUE)
<spoiler title="Содержание индексной карты (.CUE)"><pre>REM GENRE Jazz
REM DATE 2017
REM DISCID 720CAD0A
REM COMMENT "ExactAudioCopy v1.3"
PERFORMER "Wynton Kelly Trio & Wes Montgomery"
TITLE "Smokin’ In Seattle: Live At The Penthouse"
REM COMPOSER ""
FILE "01 - There Is No Greater Love.wav" WAVE TRACK 01 AUDIO TITLE "There Is No Greater Love" PERFORMER "Wynton Kelly Trio & Wes Montgomery" REM COMPOSER "" INDEX 01 00:00:00
FILE "02 - Not A Tear.wav" WAVE TRACK 02 AUDIO TITLE "Not A Tear" PERFORMER "Wynton Kelly Trio & Wes Montgomery" REM COMPOSER "" INDEX 01 00:00:00
FILE "03 - Jingles.wav" WAVE TRACK 03 AUDIO TITLE "Jingles" PERFORMER "Wynton Kelly Trio & Wes Montgomery" REM COMPOSER "" INDEX 01 00:00:00
FILE "04 - What's New_.wav" WAVE TRACK 04 AUDIO TITLE "What's New?" PERFORMER "Wynton Kelly Trio & Wes Montgomery" REM COMPOSER "" INDEX 01 00:00:00
FILE "05 - Blues In F.wav" WAVE TRACK 05 AUDIO TITLE "Blues In F" PERFORMER "Wynton Kelly Trio & Wes Montgomery" REM COMPOSER "" INDEX 01 00:00:00
FILE "06 - Sir John.wav" WAVE TRACK 06 AUDIO TITLE "Sir John" PERFORMER "Wynton Kelly Trio & Wes Montgomery" REM COMPOSER "" INDEX 01 00:00:00
FILE "07 - If You Could See Me Now.wav" WAVE TRACK 07 AUDIO TITLE "If You Could See Me Now" PERFORMER "Wynton Kelly Trio & Wes Montgomery" REM COMPOSER "" INDEX 01 00:00:00
FILE "08 - West Coast Blues.wav" WAVE TRACK 08 AUDIO TITLE "West Coast Blues" PERFORMER "Wynton Kelly Trio & Wes Montgomery" REM COMPOSER "" INDEX 01 00:00:00
FILE "09 - O Morro Nao Tem Vez.wav" WAVE TRACK 09 AUDIO TITLE "O Morro Nao Tem Vez" PERFORMER "Wynton Kelly Trio & Wes Montgomery" REM COMPOSER "" INDEX 01 00:00:00
FILE "10 - Oleo.wav" WAVE TRACK 10 AUDIO TITLE "Oleo" PERFORMER "Wynton Kelly Trio & Wes Montgomery" REM COMPOSER "" INDEX 01 00:00:00</pre></spoiler>
Приватный:
Нет (DHT включён)
Размер:
810.05 Мб (849,394,191 байт) » файлов: 39
Участники:
0 раздают, 0 качают (0 участников всего)
Внешние участники:
14 раздают, 5 качают (19 участников всего) [ Обновить ]
10:18
129
RSS
Нет комментариев. Ваш будет первым!