Поиск

1965 Shirley Horn - Travelin' Light {Impulse!} [CD]

1965 Shirley Horn - Travelin' Light {Impulse!} [CD]
Треклист:
01. Travelin' Light (2:49)
02. Sunday In New York (1:45)
03. I Could Have Told You (3:01)
04. Big City (2:02)
05. I Want To Be With You (2:51)
06. Some Of My Best Friends Are The Blues (2:23)
07. Someone You've Loved (2:58)
08. Don't Be On The Outside (2:50)
09. You're Blase (2:23)
10. Yes, I Know When I've Had It (2:19)
11. Confession (2:28)
12. And I Love Him (2:30)
 
 
Лог создания рипа
Exact Audio Copy V1.0 beta 1 from 15. November 2010
EAC extraction logfile from 16. December 2010, 22:47
Shirley Horn / Travelin' Light
Used drive  : TSSTcorpDVD-ROM TS-H352C   Adapter: 0  ID: 0
Read mode               : Secure
Utilize accurate stream : Yes
Defeat audio cache      : Yes
Make use of C2 pointers : No
Read offset correction                      : 6
Overread into Lead-In and Lead-Out          : No
Fill up missing offset samples with silence : Yes
Delete leading and trailing silent blocks   : No
Null samples used in CRC calculations       : Yes
Used interface                              : Native Win32 interface for Win NT & 2000
Gap handling                                : Appended to previous track
Used output format              : User Defined Encoder
Selected bitrate                : 320 kBit/s
Quality                         : High
Add ID3 tag                     : No
Command line compressor         : C:\Program Files (x86)\Exact Audio Copy\FLAC\FLAC.EXE
Additional command line options : -V -8 -T "artist=%a" -T "title=%t" -T "album=%g" -T "date=%y" -T "tracknumber=%n" -T "genre=%m" %s
TOC of the extracted CD
     Track |   Start  |  Length  | Start sector | End sector
    ---------------------------------------------------------
        1  |  0:00.00 |  2:48.72 |         0    |    12671
        2  |  2:48.72 |  1:44.40 |     12672    |    20511
        3  |  4:33.37 |  3:01.33 |     20512    |    34119
        4  |  7:34.70 |  2:01.60 |     34120    |    43254
        5  |  9:36.55 |  2:50.55 |     43255    |    56059
        6  | 12:27.35 |  2:23.30 |     56060    |    66814
        7  | 14:50.65 |  2:58.02 |     66815    |    80166
        8  | 17:48.67 |  2:50.10 |     80167    |    92926
        9  | 20:39.02 |  2:23.25 |     92927    |   103676
       10  | 23:02.27 |  2:19.08 |    103677    |   114109
       11  | 25:21.35 |  2:28.02 |    114110    |   125211
       12  | 27:49.37 |  2:29.60 |    125212    |   136446
Track  1
     Filename D:\eac\Shirley Horn - Travelin' Light (1965) FLAC\01 - Travelin' Light.wav
     Pre-gap length  0:00:02.00
     Peak level 92.5 %
     Extraction speed 3.1 X
     Track quality 100.0 %
     Test CRC E95CAF25
     Copy CRC E95CAF25
     Track not present in AccurateRip database
     Copy OK
Track  2
     Filename D:\eac\Shirley Horn - Travelin' Light (1965) FLAC\02 - Sunday in New York.wav
     Pre-gap length  0:00:01.35
     Peak level 87.5 %
     Extraction speed 3.1 X
     Track quality 100.0 %
     Test CRC 0BC2691F
     Copy CRC 0BC2691F
     Track not present in AccurateRip database
     Copy OK
Track  3
     Filename D:\eac\Shirley Horn - Travelin' Light (1965) FLAC\03 - I Could Have Told You.wav
     Pre-gap length  0:00:01.35
     Peak level 93.8 %
     Extraction speed 3.8 X
     Track quality 100.0 %
     Test CRC 97129081
     Copy CRC 97129081
     Track not present in AccurateRip database
     Copy OK
Track  4
     Filename D:\eac\Shirley Horn - Travelin' Light (1965) FLAC\04 - Big City.wav
     Pre-gap length  0:00:01.28
     Peak level 94.5 %
     Extraction speed 3.6 X
     Track quality 100.0 %
     Test CRC D1D9D218
     Copy CRC D1D9D218
     Track not present in AccurateRip database
     Copy OK
Track  5
     Filename D:\eac\Shirley Horn - Travelin' Light (1965) FLAC\05 - I Want to Be With You.wav
     Pre-gap length  0:00:01.35
     Peak level 86.5 %
     Extraction speed 4.1 X
     Track quality 100.0 %
     Test CRC 9EE77E0B
     Copy CRC 9EE77E0B
     Track not present in AccurateRip database
     Copy OK
Track  6
     Filename D:\eac\Shirley Horn - Travelin' Light (1965) FLAC\06 - Some of My Best Friends Are the Blues.wav
     Pre-gap length  0:00:01.33
     Peak level 94.7 %
     Extraction speed 4.1 X
     Track quality 100.0 %
     Test CRC 9A2CAD68
     Copy CRC 9A2CAD68
     Track not present in AccurateRip database
     Copy OK
Track  7
     Filename D:\eac\Shirley Horn - Travelin' Light (1965) FLAC\07 - Someone You've Loved.wav
     Pre-gap length  0:00:01.30
     Peak level 90.6 %
     Extraction speed 4.5 X
     Track quality 100.0 %
     Test CRC 5F2303DD
     Copy CRC 5F2303DD
     Track not present in AccurateRip database
     Copy OK
Track  8
     Filename D:\eac\Shirley Horn - Travelin' Light (1965) FLAC\08 - Don't Be on the Outside.wav
     Pre-gap length  0:00:01.25
     Peak level 94.9 %
     Extraction speed 4.6 X
     Track quality 100.0 %
     Test CRC 40C1FE61
     Copy CRC 40C1FE61
     Track not present in AccurateRip database
     Copy OK
Track  9
     Filename D:\eac\Shirley Horn - Travelin' Light (1965) FLAC\09 - You're Blase.wav
     Pre-gap length  0:00:01.22
     Peak level 69.5 %
     Extraction speed 4.6 X
     Track quality 100.0 %
     Test CRC 81CD330A
     Copy CRC 81CD330A
     Track not present in AccurateRip database
     Copy OK
Track 10
     Filename D:\eac\Shirley Horn - Travelin' Light (1965) FLAC\10 - Yes, I Know When I've Had It.wav
     Pre-gap length  0:00:01.22
     Peak level 89.2 %
     Extraction speed 4.7 X
     Track quality 100.0 %
     Test CRC ADE5F2E8
     Copy CRC ADE5F2E8
     Track not present in AccurateRip database
     Copy OK
Track 11
     Filename D:\eac\Shirley Horn - Travelin' Light (1965) FLAC\11 - Confession.wav
     Pre-gap length  0:00:01.25
     Peak level 77.6 %
     Extraction speed 4.8 X
     Track quality 100.0 %
     Test CRC 7CCE11B1
     Copy CRC 7CCE11B1
     Track not present in AccurateRip database
     Copy OK
Track 12
     Filename D:\eac\Shirley Horn - Travelin' Light (1965) FLAC\12 - And I Love Him.wav
     Pre-gap length  0:00:01.20
     Peak level 85.5 %
     Extraction speed 4.9 X
     Track quality 100.0 %
     Test CRC DFC6F4FB
     Copy CRC DFC6F4FB
     Track not present in AccurateRip database
     Copy OK
None of the tracks are present in the AccurateRip database
No errors occurred
End of status report
 
 
Содержание индексной карты (.CUE)
REM GENRE Jazz
REM DATE 1965
REM DISCID 9C071B0C
REM COMMENT "ExactAudioCopy v1.0b1"
PERFORMER "Shirley Horn"
TITLE "Travelin' Light"
FILE "01. Travelin' Light.flac" WAVE
  TRACK 01 AUDIO
    TITLE "Travelin' Light"
    PERFORMER "Shirley Horn"
    INDEX 01 00:00:00
  TRACK 02 AUDIO
    TITLE "Sunday In New York"
    PERFORMER "Shirley Horn"
    INDEX 00 02:47:37
FILE "02. Sunday In New York.flac" WAVE
    INDEX 01 00:00:00
  TRACK 03 AUDIO
    TITLE "I Could Have Told You"
    PERFORMER "Shirley Horn"
    INDEX 00 01:43:05
FILE "03. I Could Have Told You.flac" WAVE
    INDEX 01 00:00:00
  TRACK 04 AUDIO
    TITLE "Big City"
    PERFORMER "Shirley Horn"
    INDEX 00 03:00:05
FILE "04. Big City.flac" WAVE
    INDEX 01 00:00:00
  TRACK 05 AUDIO
    TITLE "I Want To Be With You"
    PERFORMER "Shirley Horn"
    INDEX 00 02:00:25
FILE "05. I Want To Be With You.flac" WAVE
    INDEX 01 00:00:00
  TRACK 06 AUDIO
    TITLE "Some Of My Best Friends Are The Blues"
    PERFORMER "Shirley Horn"
    INDEX 00 02:49:22
FILE "06. Some Of My Best Friends Are The Blues.flac" WAVE
    INDEX 01 00:00:00
  TRACK 07 AUDIO
    TITLE "Someone You've Loved"
    PERFORMER "Shirley Horn"
    INDEX 00 02:22:00
FILE "07. Someone You've Loved.flac" WAVE
    INDEX 01 00:00:00
  TRACK 08 AUDIO
    TITLE "Don't Be On The Outside"
    PERFORMER "Shirley Horn"
    INDEX 00 02:56:52
FILE "08. Don't Be On The Outside.flac" WAVE
    INDEX 01 00:00:00
  TRACK 09 AUDIO
    TITLE "You're Blase"
    PERFORMER "Shirley Horn"
    INDEX 00 02:48:63
FILE "09. You're Blase.flac" WAVE
    INDEX 01 00:00:00
  TRACK 10 AUDIO
    TITLE "Yes, I Know When I've Had It"
    PERFORMER "Shirley Horn"
    INDEX 00 02:22:03
FILE "10. Yes, I Know When I've Had It.flac" WAVE
    INDEX 01 00:00:00
  TRACK 11 AUDIO
    TITLE "Confession"
    PERFORMER "Shirley Horn"
    INDEX 00 02:17:58
FILE "11. Confession.flac" WAVE
    INDEX 01 00:00:00
  TRACK 12 AUDIO
    TITLE "And I Love Him"
    PERFORMER "Shirley Horn"
    INDEX 00 02:26:57
FILE "12. And I Love Him.flac" WAVE
    INDEX 01 00:00:00
Состав:

Shirley Horn — vo, p
Joe Newman — tp
Frank Wess — as, ts, fl
Jerome Richardson — ts, fl
Kenny Burrell — g
Marshall Hawkins — b
Bernard Sweetney — d
Rec.: New York, 1965.

Доп. инфо:

Год издания: 1965
Аудиокодек: FLAC (*.flac)
Тип рипа: tracks+.cue
Битрейт аудио: lossless
Продолжительность: 30:19
Источник: вата
Сканов

По всем вопросам пишите личное сообщение пользователю M0p94ok.
02:26
526
Нет комментариев. Ваш будет первым!