Поиск

1965 Ben Webster - My Romance (1989) {Jazz Hour JHR 73513} [CD]

1965 Ben Webster - My Romance (1989) {Jazz Hour JHR 73513} [CD]
Треклист:

01. Brother John's Blues (5:03)
02. Nancy (With the Laughing Face) (4:27)
03. Duke's in Bed (3:02)
04. What's I'm Gotchere (4:39)
05. My Romance (4:50)
06. Days of Wine and Roses (4:23)
07. Blue Light (4:30)
08. Stompy Jones (6:28)
09. I Can't Get Started (6:40)
10. The Theme (3:05)
11. Friskin' the Frog (7:17)
12. Stormy Weather (7:22)

Состав:

with #1-8:

  • Arnved Meyer — trumpet
  • John Darville — trombone
  • Ole Kongsted — tenor saxophone
  • Niels Jorgen Steen — piano
  • Hendrik Hartman — bass
  • Hans Nymand — drums

Recorded in Copenhagen on September 5-21, 1965.
#9-12:

Recorded in Copenhagen on January 30, 1965.

Доп. инфо:

Носитель: CD
Страна-производитель диска (релиза): EU
Год издания: 1965 (1989)
Издатель (лейбл): Jazz Hour
Номер по каталогу: JHR 73513
Аудиокодек: FLAC (*.flac)
Тип рипа: tracks+.cue
Битрейт аудио: lossless
Продолжительность: 01:01:46
Источник: What.CD
Наличие сканов в содержимом раздачи: нет

Лог создания рипа
Exact Audio Copy V1.1 from 23. June 2015

EAC extraction logfile from 10. January 2016, 16:52

Ben Webster / My Romance

Used drive  : ATAPI   iHAS124   W   Adapter: 1  ID: 0

Read mode               : Secure
Utilize accurate stream : Yes
Defeat audio cache      : Yes
Make use of C2 pointers : No

Read offset correction                      : 48
Overread into Lead-In and Lead-Out          : No
Fill up missing offset samples with silence : Yes
Delete leading and trailing silent blocks   : No
Null samples used in CRC calculations       : Yes
Used interface                              : Native Win32 interface for Win NT & 2000
Gap handling                                : Appended to previous track

Used output format              : User Defined Encoder
Selected bitrate                : 1024 kBit/s
Quality                         : High
Add ID3 tag                     : No
Command line compressor         : C:\Program Files (x86)\Exact Audio Copy\FLAC\FLAC.EXE
Additional command line options : -8 -V -T "ARTIST=%artist%" -T "TITLE=%title%" -T "ALBUM=%albumtitle%" -T "DATE=%year%" -T "TRACKNUMBER=%tracknr%" -T "GENRE=%genre%" -T "COMMENT=%comment%" -T "BAND=%albuminterpret%" -T "ALBUMARTIST=%albuminterpret%" -T "COMPOSER=%composer%" %haslyrics%--tag-from-file=LYRICS="%lyricsfile%"%haslyrics% -T "DISCNUMBER=%cdnumber%" -T "TOTALDISCS=%totalcds%" -T "TOTALTRACKS=%numtracks%" %hascover%--picture="%coverfile%"%hascover% %source% -o %dest%

TOC of the extracted CD

     Track |   Start  |  Length  | Start sector | End sector
    ---------------------------------------------------------
        1  |  0:00.32 |  5:02.68 |        32    |    22749
        2  |  5:03.25 |  4:27.07 |     22750    |    42781
        3  |  9:30.32 |  3:01.63 |     42782    |    56419
        4  | 12:32.20 |  4:38.62 |     56420    |    77331
        5  | 17:11.07 |  4:50.28 |     77332    |    99109
        6  | 22:01.35 |  4:23.27 |     99110    |   118861
        7  | 26:24.62 |  4:29.55 |    118862    |   139091
        8  | 30:54.42 |  6:27.38 |    139092    |   168154
        9  | 37:22.05 |  6:40.20 |    168155    |   198174
       10  | 44:02.25 |  3:04.52 |    198175    |   212026
       11  | 47:07.02 |  7:17.15 |    212027    |   244816
       12  | 54:24.17 |  7:21.58 |    244817    |   277949

Track  1

     Filename E:\EAC\Ben Webster - 1965 - My Romance\01 - Brother John's Blues.wav

     Pre-gap length  0:00:02.32

     Peak level 95.6 %
     Extraction speed 5.0 X
     Track quality 100.0 %
     Test CRC 70D23FE3
     Copy CRC 70D23FE3
     Accurately ripped (confidence 5)  [A5D50044]  (AR v2)
     Copy OK

Track  2

     Filename E:\EAC\Ben Webster - 1965 - My Romance\02 - Nancy (With The laughing Face.wav

     Pre-gap length  0:00:02.48

     Peak level 70.1 %
     Extraction speed 5.6 X
     Track quality 100.0 %
     Test CRC 29BADFFD
     Copy CRC 29BADFFD
     Accurately ripped (confidence 6)  [62EE30E2]  (AR v2)
     Copy OK

Track  3

     Filename E:\EAC\Ben Webster - 1965 - My Romance\03 - Duke's in Bed.wav

     Pre-gap length  0:00:01.17

     Peak level 96.9 %
     Extraction speed 5.7 X
     Track quality 100.0 %
     Test CRC BABA6EA3
     Copy CRC BABA6EA3
     Accurately ripped (confidence 6)  [06699B93]  (AR v2)
     Copy OK

Track  4

     Filename E:\EAC\Ben Webster - 1965 - My Romance\04 - Whats  l'm  Gotchere.wav

     Pre-gap length  0:00:02.35

     Peak level 96.8 %
     Extraction speed 6.5 X
     Track quality 100.0 %
     Test CRC 571BD5F4
     Copy CRC 571BD5F4
     Accurately ripped (confidence 6)  [0FC5E6B9]  (AR v2)
     Copy OK

Track  5

     Filename E:\EAC\Ben Webster - 1965 - My Romance\05 - My Romance.wav

     Pre-gap length  0:00:02.22

     Peak level 97.9 %
     Extraction speed 6.9 X
     Track quality 100.0 %
     Test CRC E15436F1
     Copy CRC E15436F1
     Accurately ripped (confidence 6)  [F867C1D3]  (AR v2)
     Copy OK

Track  6

     Filename E:\EAC\Ben Webster - 1965 - My Romance\06 - Days of Wine And Roses.wav

     Pre-gap length  0:00:04.55

     Peak level 98.3 %
     Extraction speed 7.2 X
     Track quality 100.0 %
     Test CRC 8517CA42
     Copy CRC 8517CA42
     Accurately ripped (confidence 6)  [D4EDAE35]  (AR v2)
     Copy OK

Track  7

     Filename E:\EAC\Ben Webster - 1965 - My Romance\07 - Blue Light.wav

     Pre-gap length  0:00:02.15

     Peak level 95.8 %
     Extraction speed 7.6 X
     Track quality 100.0 %
     Test CRC 8863E1BB
     Copy CRC 8863E1BB
     Accurately ripped (confidence 6)  [47C28132]  (AR v2)
     Copy OK

Track  8

     Filename E:\EAC\Ben Webster - 1965 - My Romance\08 - Stompy Jones.wav

     Pre-gap length  0:00:02.25

     Peak level 96.1 %
     Extraction speed 8.2 X
     Track quality 100.0 %
     Test CRC 344E0BE7
     Copy CRC 344E0BE7
     Accurately ripped (confidence 6)  [258AB043]  (AR v2)
     Copy OK

Track  9

     Filename E:\EAC\Ben Webster - 1965 - My Romance\09 - I Can t Get Started.wav

     Pre-gap length  0:00:01.55

     Peak level 89.6 %
     Extraction speed 8.8 X
     Track quality 100.0 %
     Test CRC 4FC3A081
     Copy CRC 4FC3A081
     Accurately ripped (confidence 6)  [1756A74C]  (AR v2)
     Copy OK

Track 10

     Filename E:\EAC\Ben Webster - 1965 - My Romance\10 - The Theme.wav

     Peak level 98.1 %
     Extraction speed 8.2 X
     Track quality 100.0 %
     Test CRC 6A9CF83B
     Copy CRC 6A9CF83B
     Accurately ripped (confidence 5)  [B32255CC]  (AR v2)
     Copy OK

Track 11

     Filename E:\EAC\Ben Webster - 1965 - My Romance\11 - Friskin' The Frog.wav

     Pre-gap length  0:00:01.00

     Peak level 98.4 %
     Extraction speed 9.2 X
     Track quality 100.0 %
     Test CRC 5E23839B
     Copy CRC 5E23839B
     Accurately ripped (confidence 4)  [A59AD002]  (AR v2)
     Copy OK

Track 12

     Filename E:\EAC\Ben Webster - 1965 - My Romance\12 - Stormy Weather.wav

     Pre-gap length  0:00:02.45

     Peak level 95.9 %
     Extraction speed 2.8 X
     Track quality 99.9 %
     Test CRC 991E0C89
     Copy CRC 991E0C89
     Accurately ripped (confidence 5)  [707CABA4]  (AR v2)
     Copy OK

All tracks accurately ripped

No errors occurred

End of status report

---- CUETools DB Plugin V2.1.6

[CTDB TOCID: 5SaGwmMzuBmuke2jEkKENzO.4HY-] found
Submit result: 5SaGwmMzuBmuke2jEkKENzO.4HY- has been confirmed
Track | CTDB Status
  1   | (1/1) Accurately ripped
  2   | (1/1) Accurately ripped
  3   | (1/1) Accurately ripped
  4   | (1/1) Accurately ripped
  5   | (1/1) Accurately ripped
  6   | (1/1) Accurately ripped
  7   | (1/1) Accurately ripped
  8   | (1/1) Accurately ripped
  9   | (1/1) Accurately ripped
 10   | (1/1) Accurately ripped
 11   | (1/1) Accurately ripped
 12   | (1/1) Accurately ripped

==== Log checksum 28721CE26FD9DDF78D74C6F60AD7036A42E3A4F1513D96450A98E27FE192FFD3 ====
Содержание индексной карты (.CUE)
REM GENRE Jazz
REM DATE 1965
REM DISCID A20E7A0C
REM COMMENT "ExactAudioCopy v1.1"
PERFORMER "Ben Webster"
TITLE "My Romance"
FILE "01 - Brother John's Blues.wav" WAVE
  TRACK 01 AUDIO
    TITLE "Brother John's Blues"
    PERFORMER "Ben Webster"
    PREGAP 00:00:32
    INDEX 01 00:00:00
  TRACK 02 AUDIO
    TITLE "Nancy (With the Laughing Face)"
    PERFORMER "Ben Webster"
    INDEX 00 05:00:20
FILE "02 - Nancy (With the Laughing Face).wav" WAVE
    INDEX 01 00:00:00
  TRACK 03 AUDIO
    TITLE "Duke's in Bed"
    PERFORMER "Ben Webster"
    INDEX 00 04:25:65
FILE "03 - Duke's in Bed.wav" WAVE
    INDEX 01 00:00:00
  TRACK 04 AUDIO
    TITLE "What's I'm Gotchere"
    PERFORMER "Ben Webster"
    INDEX 00 02:59:28
FILE "04 - What's I'm Gotchere.wav" WAVE
    INDEX 01 00:00:00
  TRACK 05 AUDIO
    TITLE "My Romance"
    PERFORMER "Ben Webster"
    INDEX 00 04:36:40
FILE "05 - My Romance.wav" WAVE
    INDEX 01 00:00:00
  TRACK 06 AUDIO
    TITLE "Days of Wine and Roses"
    PERFORMER "Ben Webster"
    INDEX 00 04:45:48
FILE "06 - Days of Wine and Roses.wav" WAVE
    INDEX 01 00:00:00
  TRACK 07 AUDIO
    TITLE "Blue Light"
    PERFORMER "Ben Webster"
    INDEX 00 04:21:12
FILE "07 - Blue Light.wav" WAVE
    INDEX 01 00:00:00
  TRACK 08 AUDIO
    TITLE "Stompy Jones"
    PERFORMER "Ben Webster"
    INDEX 00 04:27:30
FILE "08 - Stompy Jones.wav" WAVE
    INDEX 01 00:00:00
  TRACK 09 AUDIO
    TITLE "I Can't Get Started"
    PERFORMER "Ben Webster"
    INDEX 00 06:25:58
FILE "09 - I Can't Get Started.wav" WAVE
    INDEX 01 00:00:00
FILE "10 - The Theme.wav" WAVE
  TRACK 10 AUDIO
    TITLE "The Theme"
    PERFORMER "Ben Webster"
    INDEX 01 00:00:00
  TRACK 11 AUDIO
    TITLE "Friskin' the Frog"
    PERFORMER "Ben Webster"
    INDEX 00 03:03:52
FILE "11 - Friskin' the Frog.wav" WAVE
    INDEX 01 00:00:00
  TRACK 12 AUDIO
    TITLE "Stormy Weather"
    PERFORMER "Ben Webster"
    INDEX 00 07:14:45
FILE "12 - Stormy Weather.wav" WAVE
    INDEX 01 00:00:00
Лог проверки качества
[CUETools log; Date: 14.02.2019 14:39:51; Version: 2.1.6]
Pregap length 00:00:32.
[CTDB TOCID: 5SaGwmMzuBmuke2jEkKENzO.4HY-] found.
Track | CTDB Status
  1   | (28/29) Accurately ripped
  2   | (29/29) Accurately ripped
  3   | (28/29) Accurately ripped
  4   | (28/29) Accurately ripped
  5   | (28/29) Accurately ripped
  6   | (28/29) Accurately ripped
  7   | (28/29) Accurately ripped
  8   | (28/29) Accurately ripped
  9   | (28/29) Accurately ripped
 10   | (28/29) Accurately ripped
 11   | (27/29) Accurately ripped
 12   | (28/29) Accurately ripped
[AccurateRip ID: 00194aa0-00efa0b4-a20e7a0c] found.
Track   [  CRC   |   V2   ] Status
 01     [abe3be1c|a5d50044] (02+08/21) Accurately ripped
 02     [57db448d|62ee30e2] (02+09/22) Accurately ripped
 03     [2567ac8c|06699b93] (02+09/22) Accurately ripped
 04     [9bb690d6|0fc5e6b9] (02+09/22) Accurately ripped
 05     [34f47bba|f867c1d3] (02+09/22) Accurately ripped
 06     [b4475873|d4edae35] (02+09/22) Accurately ripped
 07     [ff405667|47c28132] (02+09/22) Accurately ripped
 08     [9bb8f6db|258ab043] (02+09/22) Accurately ripped
 09     [8ed99fed|1756a74c] (02+09/21) Accurately ripped
 10     [05a71dea|b32255cc] (02+08/20) Accurately ripped
 11     [3bfcde55|a59ad002] (02+07/19) Accurately ripped
 12     [6286b422|707caba4] (02+07/19) Accurately ripped
Offsetted by 1623:
 01     [81e0cb94] (04/21) Accurately ripped
 02     [cf8b291b] (04/22) Accurately ripped
 03     [b930153c] (04/22) Accurately ripped
 04     [199369a6] (04/22) Accurately ripped
 05     [85446b54] (04/22) Accurately ripped
 06     [ad534b9f] (04/22) Accurately ripped
 07     [dbc9fd04] (04/22) Accurately ripped
 08     [48b70f4d] (04/22) Accurately ripped
 09     [ad75f206] (03/21) Accurately ripped
 10     [65414c53] (03/20) Accurately ripped
 11     [29421164] (03/19) Accurately ripped
 12     [c1d058cb] (03/19) Accurately ripped
Offsetted by 1552:
 01     [7193a29c] (00/21) No match (V2 was not tested)
 02     [1f5c35c7] (00/22) No match (V2 was not tested)
 03     [034a64aa] (00/22) No match (V2 was not tested)
 04     [1ecd7358] (00/22) No match (V2 was not tested)
 05     [9bb1f0c9] (00/22) No match (V2 was not tested)
 06     [8fab14b4] (00/22) No match (V2 was not tested)
 07     [93d57acf] (00/22) No match (V2 was not tested)
 08     [1fa28bbe] (00/22) No match (V2 was not tested)
 09     [02df1424] (00/21) No match (V2 was not tested)
 10     [c87a7eb2] (00/20) No match (V2 was not tested)
 11     [20931e02] (00/19) No match (V2 was not tested)
 12     [d8aff052] (00/19) No match (V2 was not tested)

Track Peak [ CRC32  ] [W/O NULL] [  LOG   ]
 --   98,4 [42371F56] [337B7C6E]
 01   95,6 [70D23FE3] [C99882AB]   CRC32
 02   70,1 [29BADFFD] [B1B12F92]   CRC32
 03   96,9 [BABA6EA3] [5BBF7793]   CRC32
 04   96,8 [571BD5F4] [2701CF93]   CRC32
 05   97,9 [E15436F1] [3D2FC388]   CRC32
 06   98,3 [8517CA42] [D9CD339C]   CRC32
 07   95,8 [8863E1BB] [02573832]   CRC32
 08   96,1 [344E0BE7] [452CD52C]   CRC32
 09   89,6 [4FC3A081] [B7BCA7C3]   CRC32
 10   98,1 [6A9CF83B] [4F78D32D]   CRC32
 11   98,4 [5E23839B] [6B7A4C98]   CRC32
 12   95,9 [991E0C89] [D7934BB0]   CRC32
Download available for power users only.
21:47
999
Нет комментариев. Ваш будет первым!