Поиск

1965 Andy and The Bey Sisters - 'Round Midnight (2007) {Prestige Rudy Van Gelder Remaster} [CD]

1965 Andy and The Bey Sisters - 'Round Midnight (2007) {Prestige Rudy Van Gelder Remaster} [CD]
Стили:
Место записи:
Van Gelder Studios, Englewood Cliffs, NJ
Дата переиздания диска:
1 января 2007
Треклист:
1. Love Medley: Love Is Just Around The Corner/I Love You/Love You Madly 6:21
2. God Bless The Child 3:39
3. Squeeze Me 3:42
4. Tammy 2:16
5. Hallelujah, I Love Her So 2:26
6. Everybody Loves My Baby 2:42
7. ’Round Midnight 3:30
8. Solitude 2:50
9. Feeling Good 2:59
10. Ev’ry Time We Say Goodbye 3:03
Доп. инфо:

Год выпуска диска: 1965/2007
Производитель диска: E.U
Аудио кодек: FLAC
Тип рипа: tracks+.cue
Битрейт аудио: lossless
Продолжительность: 33:41

Лог создания рипа
Exact Audio Copy V0.99 prebeta 5 from 4. May 2009
EAC extraction logfile from 11. July 2010, 16:20
Andy and The Bey Sisters / 'Round Midnight
Used drive : TSSTcorpCD/DVDW TS-H552L Adapter: 3 ID: 0
Read mode : Secure
Utilize accurate stream : Yes
Defeat audio cache : Yes
Make use of C2 pointers : No
Read offset correction : 6
Overread into Lead-In and Lead-Out : No
Fill up missing offset samples with silence : Yes
Delete leading and trailing silent blocks : No
Null samples used in CRC calculations : Yes
Used interface : Native Win32 interface for Win NT & 2000
Gap handling : Appended to previous track
Used output format : User Defined Encoder
Selected bitrate : 1024 kBit/s
Quality : High
Add ID3 tag : No
Command line compressor : C:\Program Files\FLAC\flac.exe
Additional command line options : -6 -V -T "ARTIST=%a" -T "TITLE=%t" -T "ALBUM=%g" -T "DATE=%y" -T "TRACKNUMBER=%n" -T "GENRE=%m" -T "COMMENT=EAC FLAC -6" %s
TOC of the extracted CD
Track | Start | Length | Start sector | End sector
---------------------------------------------------------
1 | 0:00.00 | 6:21.46 | 0 | 28620
2 | 6:21.46 | 3:39.29 | 28621 | 45074
3 | 10:01.00 | 3:42.30 | 45075 | 61754
4 | 13:43.30 | 2:16.20 | 61755 | 71974
5 | 15:59.50 | 2:26.22 | 71975 | 82946
6 | 18:25.72 | 2:42.35 | 82947 | 95131
7 | 21:08.32 | 3:30.02 | 95132 | 110883
8 | 24:38.34 | 2:50.31 | 110884 | 123664
9 | 27:28.65 | 2:59.05 | 123665 | 137094
10 | 30:27.70 | 3:03.07 | 137095 | 150826
Track 1
Filename C:\Andy and The Bey Sisters - 'Round Midnight (1965) {2007 Prestige Rudy Van Gelder Remaster}\01 - Love Medley.wav
Pre-gap length 0:00:02.00
Peak level 98.0 %
Track quality 100.0 %
Test CRC FBFD4318
Copy CRC FBFD4318
Accurately ripped (confidence 5) [209F7101]
Copy OK
Track 2
Filename C:\Andy and The Bey Sisters - 'Round Midnight (1965) {2007 Prestige Rudy Van Gelder Remaster}\02 - God Bless The Child.wav
Pre-gap length 0:00:03.12
Peak level 97.9 %
Track quality 100.0 %
Test CRC F333A3BE
Copy CRC F333A3BE
Accurately ripped (confidence 5) [A4158EDC]
Copy OK
Track 3
Filename C:\Andy and The Bey Sisters - 'Round Midnight (1965) {2007 Prestige Rudy Van Gelder Remaster}\03 - Squeeze Me.wav
Pre-gap length 0:00:02.68
Peak level 97.9 %
Track quality 100.0 %
Test CRC 895ABECC
Copy CRC 895ABECC
Accurately ripped (confidence 5) [91F2FBF5]
Copy OK
Track 4
Filename C:\Andy and The Bey Sisters - 'Round Midnight (1965) {2007 Prestige Rudy Van Gelder Remaster}\04 - Tammy.wav
Pre-gap length 0:00:03.65
Peak level 97.9 %
Track quality 100.0 %
Test CRC 2E5683C3
Copy CRC 2E5683C3
Accurately ripped (confidence 5) [DEB4378E]
Copy OK
Track 5
Filename C:\Andy and The Bey Sisters - 'Round Midnight (1965) {2007 Prestige Rudy Van Gelder Remaster}\05 - Hallelujah, I Love Her So.wav
Pre-gap length 0:00:04.06
Peak level 97.9 %
Track quality 100.0 %
Test CRC F288C607
Copy CRC F288C607
Accurately ripped (confidence 5) [7A8E2A96]
Copy OK
Track 6
Filename C:\Andy and The Bey Sisters - 'Round Midnight (1965) {2007 Prestige Rudy Van Gelder Remaster}\06 - Everybody Loves My Baby.wav
Pre-gap length 0:00:01.36
Peak level 97.9 %
Track quality 100.0 %
Test CRC 0B986AB5
Copy CRC 0B986AB5
Accurately ripped (confidence 5) [40E16DBE]
Copy OK
Track 7
Filename C:\Andy and The Bey Sisters - 'Round Midnight (1965) {2007 Prestige Rudy Van Gelder Remaster}\07 - 'Round Midnight.wav
Pre-gap length 0:00:02.70
Peak level 97.9 %
Track quality 100.0 %
Test CRC CE972AB6
Copy CRC CE972AB6
Accurately ripped (confidence 5) [63634E3F]
Copy OK
Track 8
Filename C:\Andy and The Bey Sisters - 'Round Midnight (1965) {2007 Prestige Rudy Van Gelder Remaster}\08 - Solitude.wav
Pre-gap length 0:00:04.35
Peak level 97.9 %
Track quality 100.0 %
Test CRC 80F08B49
Copy CRC 80F08B49
Accurately ripped (confidence 5) [AE4E9296]
Copy OK
Track 9
Filename C:\Andy and The Bey Sisters - 'Round Midnight (1965) {2007 Prestige Rudy Van Gelder Remaster}\09 - Feeling Good.wav
Pre-gap length 0:00:04.22
Peak level 97.9 %
Track quality 100.0 %
Test CRC 1F9A750A
Copy CRC 1F9A750A
Accurately ripped (confidence 5) [BAB14F68]
Copy OK
Track 10
Filename C:\Andy and The Bey Sisters - 'Round Midnight (1965) {2007 Prestige Rudy Van Gelder Remaster}\10 - Ev'ry Time We Say Goodbye.wav
Pre-gap length 0:00:03.72
Peak level 97.9 %
Track quality 100.0 %
Test CRC F6F08258
Copy CRC F6F08258
Accurately ripped (confidence 5) [81757737]
Copy OK
All tracks accurately ripped
No errors occurred
End of status report
Содержание индексной карты (.CUE)
REM GENRE Jazz
REM DATE 1965
REM DISCID 7807DB0A
REM COMMENT "ExactAudioCopy v0.99pb5"
PERFORMER "Andy and The Bey Sisters"
TITLE "'Round Midnight"
FILE "01 - Love Medley.wav" WAVE
TRACK 01 AUDIO
TITLE "Love Medley"
PERFORMER "Andy and The Bey Sisters"
INDEX 01 00:00:00
TRACK 02 AUDIO
TITLE "God Bless The Child"
PERFORMER "Andy and The Bey Sisters"
INDEX 00 06:18:34
FILE "02 - God Bless The Child.wav" WAVE
INDEX 01 00:00:00
TRACK 03 AUDIO
TITLE "Squeeze Me"
PERFORMER "Andy and The Bey Sisters"
INDEX 00 03:36:36
FILE "03 - Squeeze Me.wav" WAVE
INDEX 01 00:00:00
TRACK 04 AUDIO
TITLE "Tammy"
PERFORMER "Andy and The Bey Sisters"
INDEX 00 03:38:40
FILE "04 - Tammy.wav" WAVE
INDEX 01 00:00:00
TRACK 05 AUDIO
TITLE "Hallelujah, I Love Her So"
PERFORMER "Andy and The Bey Sisters"
INDEX 00 02:12:14
FILE "05 - Hallelujah, I Love Her So.wav" WAVE
INDEX 01 00:00:00
TRACK 06 AUDIO
TITLE "Everybody Loves My Baby"
PERFORMER "Andy and The Bey Sisters"
INDEX 00 02:24:61
FILE "06 - Everybody Loves My Baby.wav" WAVE
INDEX 01 00:00:00
TRACK 07 AUDIO
TITLE "'Round Midnight"
PERFORMER "Andy and The Bey Sisters"
INDEX 00 02:39:40
FILE "07 - 'Round Midnight.wav" WAVE
INDEX 01 00:00:00
TRACK 08 AUDIO
TITLE "Solitude"
PERFORMER "Andy and The Bey Sisters"
INDEX 00 03:25:42
FILE "08 - Solitude.wav" WAVE
INDEX 01 00:00:00
TRACK 09 AUDIO
TITLE "Feeling Good"
PERFORMER "Andy and The Bey Sisters"
INDEX 00 02:46:09
FILE "09 - Feeling Good.wav" WAVE
INDEX 01 00:00:00
TRACK 10 AUDIO
TITLE "Ev'ry Time We Say Goodbye"
PERFORMER "Andy and The Bey Sisters"
INDEX 00 02:55:08
FILE "10 - Ev'ry Time We Say Goodbye.wav" WAVE
INDEX 01 00:00:00
Приватный:
Нет (DHT включён)
Размер:
237.38 Мб (248,909,923 байт) » файлов: 21
Участники:
0 раздают, 0 качают (0 участников всего)
Внешние участники:
3 раздают, 1 качают (4 участников всего) [ Обновить ]
Никого нет на раздаче - пишите личное сообщение M0p94ok
No seeders - write personal message to M0p94ok
15:49
23
13:43