Поиск

1965 Andrew Hill - Compulsion (2015) {Blue Note UCCQ-5118} [CD]

1965 Andrew Hill - Compulsion (2015) {Blue Note UCCQ-5118} [CD]
Стили:
Издатель (лейбл):
01. Compulsion (14:19)
02. Legacy (5:55)
03. Premonition (10:35)
04. Limbo (10:18)
Состав:
  • Andrew Hill — piano
  • Freddie Hubbard — trumpet, flugelhorn
  • John Gilmore — tenor saxophone, bass clarinet
  • Cecil McBee — bass
  • Joe Chambers — drums
  • Renaud Simmons — conga
  • Nadi Qamar — African drums, African thumb piano
  • Richard Davis — bowed bass (track 3)

Rec.: Van Gelder Studio, Englewood Cliffs, NJ, October 8, 1965.

Лог создания рипа
Exact Audio Copy V1.1 from 23. June 2015
EAC extraction logfile from 2. November 2015, 16:49
Andrew Hill / Compulsion
Used drive  : TSSTcorpCDDVDW SE-208DB   Adapter: 7  ID: 0
Read mode               : Secure
Utilize accurate stream : Yes
Defeat audio cache      : Yes
Make use of C2 pointers : No
Read offset correction                      : 6
Overread into Lead-In and Lead-Out          : No
Fill up missing offset samples with silence : Yes
Delete leading and trailing silent blocks   : No
Null samples used in CRC calculations       : Yes
Used interface                              : Installed external ASPI interface
Gap handling                                : Appended to previous track
Used output format              : User Defined Encoder
Selected bitrate                : 1024 kBit/s
Quality                         : High
Add ID3 tag                     : No
Command line compressor         : C:\Program Files (x86)\FLAC Frontend\tools\flac.exe
Additional command line options : -8 -V -T "ARTIST=%artist%" -T "TITLE=%title%" -T "ALBUM=%albumtitle%" -T "DATE=%year%" -T "TRACKNUMBER=%tracknr%" -T "TOTALTRACKS=%numtracks%" -T "GENRE=%genre%" -T "ALBUMARTIST=%albumartist%" -T "ALBUM ARTIST=%albumartist%" -T "COMMENT=EAC Secure Mode, Test & Copy, AccurateRip, FLAC -8" %source%
TOC of the extracted CD
     Track |   Start  |  Length  | Start sector | End sector
    ---------------------------------------------------------
        1  |  0:00.00 | 14:18.44 |         0    |    64393
        2  | 14:18.44 |  5:54.45 |     64394    |    90988
        3  | 20:13.14 | 10:34.65 |     90989    |   138603
        4  | 30:48.04 | 10:17.59 |    138604    |   184937
Track  1
     Filename M:\_EAC\Andrew Hill - Compulsion (1965) [FLAC] {2015 Japan SHM-CD Blue Note 24-192 Remaster}\01 - Compulsion.wav
     Pre-gap length  0:00:02.00
     Peak level 99.4 %
     Extraction speed 3.2 X
     Track quality 100.0 %
     Test CRC A224F774
     Copy CRC A224F774
     Accurately ripped (confidence 2)  [48E789EE]  (AR v2)
     Copy OK
Track  2
     Filename M:\_EAC\Andrew Hill - Compulsion (1965) [FLAC] {2015 Japan SHM-CD Blue Note 24-192 Remaster}\02 - Legacy.wav
     Pre-gap length  0:00:02.43
     Peak level 97.7 %
     Extraction speed 3.7 X
     Track quality 100.0 %
     Test CRC 4369973C
     Copy CRC 4369973C
     Accurately ripped (confidence 2)  [90512802]  (AR v2)
     Copy OK
Track  3
     Filename M:\_EAC\Andrew Hill - Compulsion (1965) [FLAC] {2015 Japan SHM-CD Blue Note 24-192 Remaster}\03 - Premonition.wav
     Pre-gap length  0:00:02.43
     Peak level 97.0 %
     Extraction speed 4.3 X
     Track quality 100.0 %
     Test CRC D6F2653E
     Copy CRC D6F2653E
     Accurately ripped (confidence 2)  [D67B57C6]  (AR v2)
     Copy OK
Track  4
     Filename M:\_EAC\Andrew Hill - Compulsion (1965) [FLAC] {2015 Japan SHM-CD Blue Note 24-192 Remaster}\04 - Limbo.wav
     Pre-gap length  0:00:02.43
     Peak level 99.5 %
     Extraction speed 4.8 X
     Track quality 100.0 %
     Test CRC D9D4E10C
     Copy CRC D9D4E10C
     Accurately ripped (confidence 2)  [32CBF15C]  (AR v2)
     Copy OK
All tracks accurately ripped
No errors occurred
End of status report
==== Log checksum 32642293561DAA543A1D5C37F3C6BCBC7740B56B1C4B88EF9626B51B38B4B333 ====
Содержание индексной карты (.CUE)
REM GENRE Jazz
REM DATE 1965
REM DISCID 2709A104
REM COMMENT "ExactAudioCopy v1.1"
PERFORMER "Andrew Hill"
TITLE "Compulsion"
FILE "01 - Compulsion.wav" WAVE
  TRACK 01 AUDIO
    TITLE "Compulsion"
    PERFORMER "Andrew Hill"
    INDEX 01 00:00:00
  TRACK 02 AUDIO
    TITLE "Legacy"
    PERFORMER "Andrew Hill"
    INDEX 00 14:16:01
FILE "02 - Legacy.wav" WAVE
    INDEX 01 00:00:00
  TRACK 03 AUDIO
    TITLE "Premonition"
    PERFORMER "Andrew Hill"
    INDEX 00 05:52:02
FILE "03 - Premonition.wav" WAVE
    INDEX 01 00:00:00
  TRACK 04 AUDIO
    TITLE "Limbo"
    PERFORMER "Andrew Hill"
    INDEX 00 10:32:22
FILE "04 - Limbo.wav" WAVE
    INDEX 01 00:00:00
16:34
979
Нет комментариев. Ваш будет первым!