Поиск

1965 (2004) Art Blakey & The Jazz Messengers - 'S Make It

1965 (2004) Art Blakey & The Jazz Messengers - 'S Make It
Стили:
Страна-производитель диска (релиза):
USA
Дата записи диска:
15,16 и 25 ноября 1964
Дата издания диска:
март 1965
Дата переиздания диска:
2004
Номер по каталогу:
LS 86001
Носитель:
CD
Битрейт аудио:
lossless
Время звучания:
35:29 min
Наличие сканов:
  • да
Релизёр (источник):
mironov_ad
Треклист:

01. Faith (Freeman, Lawrence) 3:46
02. 'S Make It (Morgan) 5:40
03. Waltz for Ruth (Hicks) 5:46
04. One for Gamal (Morgan) 3:41
05. Little Hughie (Fuller) 5:35
06. Olympia (Hicks) 5:49
07. Lament for Stacy (Morgan) 5:12

Состав:
  • Art Blakey Drums, Liner Notes
  • Leonard Feather Liner Notes
  • Curtis Fuller Composer, Trombone
  • John Gilmore Sax (Tenor)
  • John Hicks Composer, Piano
  • Lee Morgan Composer, Trumpet
  • Pete Romano Engineer
  • Victor Sproles Bass
  • Jack Tracy Audio Production, Producer
  • Dave Wiechman Engineer
Лог создания рипа
EAC extraction logfile from 10. May 2006, 3:21 for CD
Art Blakey & The Jazz Messengers / 'S Make It
Used drive : LITE-ON DVDRW SOHW-1633S Adapter: 0 ID: 0
Read mode : Secure with NO C2, accurate stream, disable cache
Read offset correction : 12
Overread into Lead-In and Lead-Out : No
Used output format : Internal WAV Routines
44.100 Hz; 16 Bit; Stereo
Other options :
Fill up missing offset samples with silence : Yes
Delete leading and trailing silent blocks : No
Installed external ASPI interface
Track 1
Filename D:\FLAC\Art Blakey & The Jazz Messengers - 'S Make It (1965) [FLAC]\01 - Faith.wav
Pre-gap length 0:00:02.00
Peak level 97.7 %
Track quality 99.9 %
Test CRC 9D6B18F1
Copy CRC 9D6B18F1
Copy OK
Track 2
Filename D:\FLAC\Art Blakey & The Jazz Messengers - 'S Make It (1965) [FLAC]\02 - 'S Make It.wav
Pre-gap length 0:00:02.60
Peak level 97.7 %
Track quality 100.0 %
Test CRC 2038E17C
Copy CRC 2038E17C
Copy OK
Track 3
Filename D:\FLAC\Art Blakey & The Jazz Messengers - 'S Make It (1965) [FLAC]\03 - Waltz For Ruth.wav
Pre-gap length 0:00:02.57
Peak level 97.7 %
Track quality 100.0 %
Test CRC D289B36F
Copy CRC D289B36F
Copy OK
Track 4
Filename D:\FLAC\Art Blakey & The Jazz Messengers - 'S Make It (1965) [FLAC]\04 - One For Gamal.wav
Pre-gap length 0:00:02.57
Peak level 97.7 %
Track quality 100.0 %
Test CRC 2ED779D1
Copy CRC 2ED779D1
Copy OK
Track 5
Filename D:\FLAC\Art Blakey & The Jazz Messengers - 'S Make It (1965) [FLAC]\05 - Little Hughie.wav
Pre-gap length 0:00:02.57
Peak level 97.7 %
Track quality 100.0 %
Test CRC CBD7BB53
Copy CRC CBD7BB53
Copy OK
Track 6
Filename D:\FLAC\Art Blakey & The Jazz Messengers - 'S Make It (1965) [FLAC]\06 - Olympia.wav
Pre-gap length 0:00:02.60
Peak level 97.7 %
Track quality 100.0 %
Test CRC 98C5B3EA
Copy CRC 98C5B3EA
Copy OK
Track 7
Filename D:\FLAC\Art Blakey & The Jazz Messengers - 'S Make It (1965) [FLAC]\07 - Lament For Stacy.wav
Pre-gap length 0:00:02.56
Peak level 97.7 %
Track quality 100.0 %
Test CRC 4F975664
Copy CRC 4F975664
Copy OK
No errors occured
End of status report
Приватный:
Нет (DHT включён)
Размер:
243.35 Мб (255,172,096 байт) » файлов: 16
Участники:
0 раздают, 0 качают (0 участников всего)
Внешние участники:
2 раздают, 1 качают (3 участников всего) [ Обновить ]
16:17
59
RSS
Нет комментариев. Ваш будет первым!