Поиск

1965 (1989) Oscar Peterson Trio - We Get Requests {Verve 810 047-2}

1965 (1989) Oscar Peterson Trio - We Get Requests {Verve 810 047-2}
Страна-производитель диска (релиза):
Canada
Дата записи диска:
19 октября - 20 ноября 1964
Дата издания диска:
1965
Дата переиздания диска:
1989
Издатель (лейбл):
Номер по каталогу:
810 047-2
Носитель:
CD
Битрейт аудио:
lossless
Аудиокодек:
APE (*.ape)
Тип рипа:
image+.cue
Время звучания:
40:00
Наличие сканов:
  • да
Релизёр (источник):
alexsor
Состав:
  • Philip Bailey Liner Notes
  • Ray Brown Bass
  • Jim Davis Producer
  • Oscar Peterson Composer,Piano
  • Bob Simpson Engineer
  • Ed Thigpen Drums

01. Quiet Nights Of Quiet Stars (Corcovado) [02:50]
02. Days Of Wine And Roses [02:42]
03. My One And Only Love [05:10]
04. People [03:32]
05. Have You Met Miss Jones? [04:15]
06. You Look Good To Me [04:48]
07. The Girl From Ipanema [03:54]
08. D. & E. [05:13]
09. Time And Again [04:39]
10. Goodbye J.D. [02:54]

Лог создания рипа
<spoiler title="Лог создания рипа"><pre>Exact Audio Copy V0.99 prebeta 3 from 28. July 2007
Отчёт EAC об извлечении, выполненном 25. декабря 2007, 11:42
The Oscar Peterson Trio / We Get Requests
Дисковод: Optiarc DVD RW AD-7170S Adapter: 2 ID: 0
Режим чтения : Достоверность
Использование точного потока : Да
Отключение кэша аудио : Да
Использование указателей C2 : Нет
Коррекция смещения при чтении : 48
Способность читать области Lead-in и Lead-out : Нет
Заполнение пропущенных сэмплов тишиной : Да
Удаление блоков с тишиной в начале и конце : Нет
При вычислениях CRC использовались нулевые сэмплы : Нет
Интерфейс : Установленный внешний ASPI-интерфейс
Выходной формат : Monkey's Audio Lossless Encoder v3.99 DLL
Формат сэмплов : Normal Lossless Compression
TOC извлечённого CD
Трек | Старт | Длительность | Начальный сектор | Конечный сектор
---------------------------------------------------------------------
1 | 0:00.32 | 2:50.65 | 32 | 12846
2 | 2:51.22 | 2:42.00 | 12847 | 24996
3 | 5:33.22 | 5:10.03 | 24997 | 48249
4 | 10:43.25 | 3:32.32 | 48250 | 64181
5 | 14:15.57 | 4:15.20 | 64182 | 83326
6 | 18:31.02 | 4:48.43 | 83327 | 104969
7 | 23:19.45 | 3:54.17 | 104970 | 122536
8 | 27:13.62 | 5:13.13 | 122537 | 146024
9 | 32:27.00 | 4:39.17 | 146025 | 166966
10 | 37:06.17 | 2:54.38 | 166967 | 180054
Характеристики диапазона извлечения и сообщения об ошибках
Выбранный диапазон
Имя файла C:\EAC\The Oscar Peterson Trio - We Get Requests.ape
Пиковый уровень 99.9 %
Качество диапазона 99.9 %
CRC копии A0973F4C
Копирование... OK
Ошибок не произошло
Конец отчёта<pre></spoiler>
Скачивание доступно после регистрации!!
Приватный:
Нет (DHT включён)
Размер:
214.59 Мб (225,018,612 байт) » файлов: 13
Участники:
8 раздают, 1 качают (9 участников всего)
Внешние участники:
--- [ Обновить ]
16:59
96
RSS
Нет комментариев. Ваш будет первым!