Поиск

1965,1967 Rahsaan Roland Kirk - Rip, Rig & Panic+Now Please Don't You Cry, Beautiful Edith (1990) {EmArcy} [CD]

1965,1967 Rahsaan Roland Kirk - Rip, Rig & Panic+Now Please Don't You Cry, Beautiful Edith (1990) {EmArcy} [CD]
Стили:
Страна-производитель диска (релиза):
USA
Дата записи диска:
13 января 1965 (1-7); апрель 1967 (8-15)
Дата издания диска:
1990
Издатель (лейбл):
Носитель:
CD
Аудиокодек:
FLAC (*.flac)
Тип рипа:
image+.cue
Битрейт аудио:
lossless
Время звучания:
00:07:34
Наличие сканов:
да
Релизёр (источник):
gromzy
Треклист:

01. No Tonic Press
02. Once In A While
03. From Bechet, Byas, And Fats
04. Mystical Dream
05. Rip, Rig And Panic
06. Black Diamond
07. Slippery Hippery Flippery
08. Blue Rol
09. Alfie
10. Why Don't They Know
11. Silverlization
12. Fall Out
13. Now Please Don't You Cry, Beautiful Edith
14. Stompin' Grounds
15. It's A Grand Night For Swinging

Лог создания рипа
Exact Audio Copy V0.99 prebeta 4 from 23. January 2008

Отчёт EAC об извлечении, выполненном 13. августа 2008, 17:06

Roland Kirk Quartet / Rip, Rig And Panic, Now Please Don't You Cry, Beautiful Edith

Дисковод: Optiarc DVD RW AD-7170A Adapter: 1 ID: 0

Режим чтения : Достоверность
Использование точного потока : Да
Отключение кэша аудио : Да
Использование указателей C2 : Нет

Коррекция смещения при чтении : 48
Способность читать области Lead-in и Lead-out : Нет
Заполнение пропущенных сэмплов тишиной : Да
Удаление блоков с тишиной в начале и конце : Нет
При вычислениях CRC использовались нулевые сэмплы : Да
Интерфейс : Встроенный Win32-интерфейс для Win NT/2000

Выходной формат : Пользовательский кодировщик
Выбранный битрейт : 768 kBit/s
Качество : Высокий
Добавление ID3-тэга : Нет
Утилита сжатия : C:\Program Files\Exact Audio Copy\FLAC\FLAC.EXE
Дополнительные параметры : -6 -V -T "ARTIST=%a" -T "TITLE=%t" -T "ALBUM=%g" -T "DATE=%y" -T "TRACKNUMBER=%n" -T "GENRE=%m" -T "COMMENT=%e" %s -o %d

TOC извлечённого CD

Трек | Старт | Длительность | Начальный сектор | Конечный сектор
---------------------------------------------------------------------
1 | 0:00.33 | 4:33.25 | 33 | 20532
2 | 4:33.58 | 3:59.62 | 20533 | 38519
3 | 8:33.45 | 6:29.50 | 38520 | 67744
4 | 15:03.20 | 2:38.63 | 67745 | 79657
5 | 17:42.08 | 6:58.00 | 79658 | 111007
6 | 24:40.08 | 5:22.37 | 111008 | 135194
7 | 30:02.45 | 4:57.38 | 135195 | 157507
8 | 35:00.08 | 6:11.50 | 157508 | 185382
9 | 41:11.58 | 2:54.50 | 185383 | 198482
10 | 44:06.33 | 2:56.62 | 198483 | 211744
11 | 47:03.20 | 5:00.50 | 211745 | 234294
12 | 52:03.70 | 3:04.00 | 234295 | 248094
13 | 55:07.70 | 4:25.63 | 248095 | 268032
14 | 59:33.58 | 4:49.25 | 268033 | 289732
15 | 64:23.08 | 3:10.37 | 289733 | 304019

Характеристики диапазона извлечения и сообщения об ошибках

Выбранный диапазон

Имя файла D:\Docs\sasha\Мои документы\UPLOAD\Roland Kirk Quartet - Rip, Rig And Panic, Now Please Don't You Cry, Beautiful Edith\Roland Kirk Quartet - Rip, Rig And Panic, Now Please Don't You Cry, Beautiful Edith.wav

Пиковый уровень 85.1 %
Качество диапазона 99.9 %
CRC копии 4D9452E0
Копирование... OK

Ошибок не произошло

Конец отчёта
Приватный:
Нет (DHT включён)
Размер:
382.18 Мб (400,745,689 байт) » файлов: 9
Участники:
8 раздают, 0 качают (8 участников всего)
Внешние участники:
8 раздают, 2 качают (10 участников всего) [ Обновить ]
Никого нет на раздаче - пишите личное сообщение M0p94ok
No seeders - write personal message to M0p94ok
22:27
17
Нет комментариев. Ваш будет первым!