Поиск

1964 Herbie Mann - Do The Bossa Nova + Latin Fever (2000) {Atlantic} [CD]

1964 Herbie Mann - Do The Bossa Nova + Latin Fever (2000) {Atlantic} [CD]
Стили:
Издатель (лейбл):
01 ... Deve Ser Amor ... 2:18
02 ... Menina Feia ... 1:55
03 ... Amor Em Paz ... 1:57
04 ... Voce E Eu ... 2:16
05 ... One Note Samba ... 3:06
06 ... Blues Walk ... 2:32
07 ... Consolacao ... 5:14
08 ... Bossa Velha ... 4:01
09 ... Harlem Nocturne ... 5:09
10 ... Fever ... 5:40
11 ... Not Now - Later On ... 4:21
12 ... The Golden Striker ... 5:31
13 ... Insensatez ... 2:38
14 ... You Came A Long Way From St. Louis ... 4:23
15 ... Batida Differente ... 3:22
16 ... Nana ... 4:08
17 ... Groovy Samba ... 4:26
18 ... Influenza De Jazz ... 4:21
 
Лог создания рипа
EAC extraction logfile from 30. December 2006, 9:22 for CD
Herbie Mann / Do The Bossa Nova / Latin Fever
Used drive  : SAMSUNG CD-ROM SC-152G   Adapter: 1  ID: 0
Read mode   : Secure with NO C2, accurate stream, disable cache
Read offset correction : 691
Overread into Lead-In and Lead-Out : No
Used output format : C:\Programme\FLAC\flac.exe   (User Defined Encoder)
                     320 kBit/s
                     Additional command line options : -5 -V -T "ARTIST=%a" -T "TITLE=%t" -T "ALBUM=%g" -T "DATE=%y" -T "TRACKNUMBER=%n" -T "GENRE=%m" -T "COMMENT=EAC Flac 1.1.2 -5" %s
Other options      :
    Fill up missing offset samples with silence : Yes
    Delete leading and trailing silent blocks : No
    Native Win32 interface for Win NT & 2000
Track  1
     Filename D:\@ EAC Kompr Dateien\Herbie Mann - Do The Bossa Nova , Latin Fever - 01 - Deve Ser Amor.wav
     Peak level 94.3 %
     Track quality 99.9 %
     Copy CRC 9A66B4A4
     Copy OK
Track  2
     Filename D:\@ EAC Kompr Dateien\Herbie Mann - Do The Bossa Nova , Latin Fever - 02 - Menina Feia.wav
     Peak level 93.0 %
     Track quality 100.0 %
     Copy CRC 91AC9C2A
     Copy OK
Track  3
     Filename D:\@ EAC Kompr Dateien\Herbie Mann - Do The Bossa Nova , Latin Fever - 03 - Amor Em Paz.wav
     Peak level 90.7 %
     Track quality 100.0 %
     Copy CRC 8E4750EB
     Copy OK
Track  4
     Filename D:\@ EAC Kompr Dateien\Herbie Mann - Do The Bossa Nova , Latin Fever - 04 - Voce E Eu.wav
     Peak level 95.5 %
     Track quality 100.0 %
     Copy CRC 7E6D04DA
     Copy OK
Track  5
     Filename D:\@ EAC Kompr Dateien\Herbie Mann - Do The Bossa Nova , Latin Fever - 05 - One Note Samba.wav
     Peak level 98.3 %
     Track quality 99.9 %
     Copy CRC F2DE4711
     Copy OK
Track  6
     Filename D:\@ EAC Kompr Dateien\Herbie Mann - Do The Bossa Nova , Latin Fever - 06 - Blues Walk.wav
     Peak level 99.3 %
     Track quality 100.0 %
     Copy CRC F7053302
     Copy OK
Track  7
     Filename D:\@ EAC Kompr Dateien\Herbie Mann - Do The Bossa Nova , Latin Fever - 07 - Consolacao.wav
     Peak level 91.5 %
     Track quality 100.0 %
     Copy CRC C1FC84BD
     Copy OK
Track  8
     Filename D:\@ EAC Kompr Dateien\Herbie Mann - Do The Bossa Nova , Latin Fever - 08 - Bossa Velha.wav
     Peak level 97.0 %
     Track quality 100.0 %
     Copy CRC 329855FD
     Copy OK
Track  9
     Filename D:\@ EAC Kompr Dateien\Herbie Mann - Do The Bossa Nova , Latin Fever - 09 - Harlem Nocturne.wav
     Peak level 97.8 %
     Track quality 100.0 %
     Copy CRC D7D2D460
     Copy OK
Track 10
     Filename D:\@ EAC Kompr Dateien\Herbie Mann - Do The Bossa Nova , Latin Fever - 10 - Fever.wav
     Peak level 98.5 %
     Track quality 100.0 %
     Copy CRC 9D4D633F
     Copy OK
Track 11
     Filename D:\@ EAC Kompr Dateien\Herbie Mann - Do The Bossa Nova , Latin Fever - 11 - Not Now - Later On.wav
     Peak level 95.2 %
     Track quality 100.0 %
     Copy CRC FA5A1DCC
     Copy OK
Track 12
     Filename D:\@ EAC Kompr Dateien\Herbie Mann - Do The Bossa Nova , Latin Fever - 12 - The Golden Striker.wav
     Peak level 93.3 %
     Track quality 100.0 %
     Copy CRC 1673F508
     Copy OK
Track 13
     Filename D:\@ EAC Kompr Dateien\Herbie Mann - Do The Bossa Nova , Latin Fever - 13 - Insensatez.wav
     Peak level 83.5 %
     Track quality 100.0 %
     Copy CRC 4DE7B549
     Copy OK
Track 14
     Filename D:\@ EAC Kompr Dateien\Herbie Mann - Do The Bossa Nova , Latin Fever - 14 - You Came A Long Way From St. Louis.wav
     Peak level 90.6 %
     Track quality 100.0 %
     Copy CRC BC9311EF
     Copy OK
Track 15
     Filename D:\@ EAC Kompr Dateien\Herbie Mann - Do The Bossa Nova , Latin Fever - 15 - Batida Differente.wav
     Peak level 98.6 %
     Track quality 100.0 %
     Copy CRC 06ECD04B
     Copy OK
Track 16
     Filename D:\@ EAC Kompr Dateien\Herbie Mann - Do The Bossa Nova , Latin Fever - 16 - Nana.wav
     Peak level 80.8 %
     Track quality 100.0 %
     Copy CRC 4500A202
     Copy OK
Track 17
     Filename D:\@ EAC Kompr Dateien\Herbie Mann - Do The Bossa Nova , Latin Fever - 17 - Groovy Samba.wav
     Peak level 93.3 %
     Track quality 100.0 %
     Copy CRC F4DFC188
     Copy OK
Track 18
     Filename D:\@ EAC Kompr Dateien\Herbie Mann - Do The Bossa Nova , Latin Fever - 18 - Influenza De Jazz.wav
     Peak level 90.3 %
     Track quality 100.0 %
     Copy CRC 81143F6A
     Copy OK
No errors occured
End of status report
 
 
Содержание индексной карты (.CUE)
REM GENRE Jazz
REM DATE 1964
REM DISCID 0B0FCE12
REM COMMENT "ExactAudioCopy v0.95b4"
PERFORMER "Herbie Mann"
TITLE "Do The Bossa Nova / Latin Fever"
FILE "Herbie Mann - Do The Bossa Nova , Latin Fever - 01 - Deve Ser Amor.wav" WAVE
  TRACK 01 AUDIO
    TITLE "Deve Ser Amor"
    PERFORMER "Herbie Mann"
    INDEX 01 00:00:00
  TRACK 02 AUDIO
    TITLE "Menina Feia"
    PERFORMER "Herbie Mann"
    INDEX 00 04:19:25
FILE "Herbie Mann - Do The Bossa Nova , Latin Fever - 02 - Menina Feia.wav" WAVE
    INDEX 01 00:00:00
  TRACK 03 AUDIO
    TITLE "Amor Em Paz"
    PERFORMER "Herbie Mann"
    INDEX 00 05:29:62
FILE "Herbie Mann - Do The Bossa Nova , Latin Fever - 03 - Amor Em Paz.wav" WAVE
    INDEX 01 00:00:00
  TRACK 04 AUDIO
    TITLE "Voce E Eu"
    PERFORMER "Herbie Mann"
    INDEX 00 02:36:63
FILE "Herbie Mann - Do The Bossa Nova , Latin Fever - 04 - Voce E Eu.wav" WAVE
    INDEX 01 00:00:00
  TRACK 05 AUDIO
    TITLE "One Note Samba"
    PERFORMER "Herbie Mann"
    INDEX 00 04:22:10
FILE "Herbie Mann - Do The Bossa Nova , Latin Fever - 05 - One Note Samba.wav" WAVE
    INDEX 01 00:00:00
  TRACK 06 AUDIO
    TITLE "Blues Walk"
    PERFORMER "Herbie Mann"
    INDEX 00 03:20:15
FILE "Herbie Mann - Do The Bossa Nova , Latin Fever - 06 - Blues Walk.wav" WAVE
    INDEX 01 00:00:00
  TRACK 07 AUDIO
    TITLE "Consolacao"
    PERFORMER "Herbie Mann"
    INDEX 00 04:06:15
FILE "Herbie Mann - Do The Bossa Nova , Latin Fever - 07 - Consolacao.wav" WAVE
    INDEX 01 00:00:00
  TRACK 08 AUDIO
    TITLE "Bossa Velha"
    PERFORMER "Herbie Mann"
    INDEX 00 04:24:30
FILE "Herbie Mann - Do The Bossa Nova , Latin Fever - 08 - Bossa Velha.wav" WAVE
    INDEX 01 00:00:00
  TRACK 09 AUDIO
    TITLE "Harlem Nocturne"
    PERFORMER "Herbie Mann"
    INDEX 00 04:19:60
FILE "Herbie Mann - Do The Bossa Nova , Latin Fever - 09 - Harlem Nocturne.wav" WAVE
    INDEX 01 00:00:00
  TRACK 10 AUDIO
    TITLE "Fever"
    PERFORMER "Herbie Mann"
    INDEX 00 02:16:40
FILE "Herbie Mann - Do The Bossa Nova , Latin Fever - 10 - Fever.wav" WAVE
    INDEX 01 00:00:00
  TRACK 11 AUDIO
    TITLE "Not Now - Later On"
    PERFORMER "Herbie Mann"
    INDEX 00 01:53:60
FILE "Herbie Mann - Do The Bossa Nova , Latin Fever - 11 - Not Now - Later On.wav" WAVE
    INDEX 01 00:00:00
  TRACK 12 AUDIO
    TITLE "The Golden Striker"
    PERFORMER "Herbie Mann"
    INDEX 00 01:55:00
FILE "Herbie Mann - Do The Bossa Nova , Latin Fever - 12 - The Golden Striker.wav" WAVE
    INDEX 01 00:00:00
  TRACK 13 AUDIO
    TITLE "Insensatez"
    PERFORMER "Herbie Mann"
    INDEX 00 02:14:63
FILE "Herbie Mann - Do The Bossa Nova , Latin Fever - 13 - Insensatez.wav" WAVE
    INDEX 01 00:00:00
  TRACK 14 AUDIO
    TITLE "You Came A Long Way From St. Louis"
    PERFORMER "Herbie Mann"
    INDEX 00 03:04:37
FILE "Herbie Mann - Do The Bossa Nova , Latin Fever - 14 - You Came A Long Way From St. Louis.wav" WAVE
    INDEX 01 00:00:00
  TRACK 15 AUDIO
    TITLE "Batida Differente"
    PERFORMER "Herbie Mann"
    INDEX 00 02:30:63
FILE "Herbie Mann - Do The Bossa Nova , Latin Fever - 15 - Batida Differente.wav" WAVE
    INDEX 01 00:00:00
  TRACK 16 AUDIO
    TITLE "Nana"
    PERFORMER "Herbie Mann"
    INDEX 00 05:12:72
FILE "Herbie Mann - Do The Bossa Nova , Latin Fever - 16 - Nana.wav" WAVE
    INDEX 01 00:00:00
  TRACK 17 AUDIO
    TITLE "Groovy Samba"
    PERFORMER "Herbie Mann"
    INDEX 00 03:59:65
FILE "Herbie Mann - Do The Bossa Nova , Latin Fever - 17 - Groovy Samba.wav" WAVE
    INDEX 01 00:00:00
  TRACK 18 AUDIO
    TITLE "Influenza De Jazz"
    PERFORMER "Herbie Mann"
    INDEX 00 05:07:00
FILE "Herbie Mann - Do The Bossa Nova , Latin Fever - 18 - Influenza De Jazz.wav" WAVE
    INDEX 01 00:00:00
19:30
407
Нет комментариев. Ваш будет первым!