Поиск

1964 Alex Welsh, Pee Wee Russell, Roy Crimmins - Side by Side (Live) (2021) {Nagel Heyer} [24-44.1]

1964 Alex Welsh, Pee Wee Russell, Roy Crimmins - Side by Side (Live) (2021) {Nagel Heyer} [24-44.1]
Дата переиздания диска:
30 июня 2021
Издатель (лейбл):
Носитель:
WEB
Формат:
PCM
Тип рипа:
tracks
Контейнер:
FLAC (*.flac)
Количество каналов:
2.0
Разрядность/ЧД:
24/44,1
Битрейт аудио:
lossless
Время звучания:
01:51:29
Наличие сканов:
только обложка

01 - Ain't Misbehavin' 04:32
02 - If I Had You 06:04
03 - Rose Room 07:19
04 - I'm Confessin' (That I Love You) 05:38
05 - Wolverine Blues 07:31
06 - (Back Home Again In) Indiana 05:26
07 - It's Right Here for You 06:04
08 - Sugar 09:48
09 - S Wonderful 04:36
10 - I Can't Believe That You're in Love with Me 06:49
11 - Pee Wee's Blues 06:25
12 - You Made Me Love You 04:09
13 - Someday Sweetheart 07:09
14 - Oh, Baby 08:01
15 - That's My Desire 06:58
16 - Don't Forget to Remember 01:19
17 - Sugar II 06:10
18 - If I Had You II 07:31

Состав:
  • Alex Welsh — trumpet
  • Pee Wee Russell — clarinet
  • Roy Crimmins — trombone
  • John Barnes — clarinet, saxes
  • Fred Hunt — piano
  • Jim Douglas — guitar, banjo
  • Ron Mathewson — bass
  • Lennie Hastings — drums
Лог проверки качества
foobar2000 1.4.3 / Dynamic Range Meter 1.1.1
log date: 2022-01-08 15:10:18
--------------------------------------------------------------------------------
Analyzed: Alex Welsh / Side by Side
--------------------------------------------------------------------------------
DR         Peak         RMS     Duration Track
--------------------------------------------------------------------------------
DR12      -1.00 dB   -15.60 dB      4:33 01-Ain't Misbehavin'  (Live)
DR10      -1.00 dB   -13.43 dB      6:04 02-If I Had You  (Live)
DR11      -1.00 dB   -15.22 dB      7:20 03-Rose Room  (Live)
DR10      -1.00 dB   -14.58 dB      5:39 04-I'm Confessin' (That I Love You)  (Live)
DR10      -1.00 dB   -13.74 dB      7:31 05-Wolverine Blues  (Live)
DR10      -1.00 dB   -13.14 dB      5:26 06-(Back Home Again In) Indiana  (Live)
DR9       -1.00 dB   -12.80 dB      6:04 07-It's Right Here for You  (Live)
DR9       -1.00 dB   -13.53 dB      9:49 08-Sugar  (Live)
DR9       -1.00 dB   -12.40 dB      4:37 09-S Wonderful  (Live)
DR9       -1.00 dB   -12.65 dB      6:50 10-I Can't Believe That You're in Love with Me  (Live)
DR9       -1.00 dB   -14.61 dB      6:26 11-Pee Wee's Blues  (Live)
DR8       -1.00 dB   -11.78 dB      4:09 12-You Made Me Love You  (Live)
DR10      -1.00 dB   -15.21 dB      7:09 13-Someday Sweetheart  (Live)
DR9       -1.00 dB   -12.17 dB      8:02 14-Oh, Baby  (Live)
DR12      -1.00 dB   -15.37 dB      6:58 15-That's My Desire  (Live)
DR11      -1.00 dB   -15.44 dB      1:20 16-Don't Forget to Remember  (Live)
DR10      -1.00 dB   -14.82 dB      6:10 17-Sugar II  (Live)
DR11      -1.00 dB   -15.82 dB      7:31 18-If I Had You II  (Live)
--------------------------------------------------------------------------------
Number of tracks:  18
Official DR value: DR10
Samplerate:        44100 Hz
Channels:          2
Bits per sample:   24
Bitrate:           1149 kbps
Codec:             FLAC
================================================================================
Приватный:
Нет (DHT включён)
Размер:
990.90 Мб (1,039,036,754 байт) » файлов: 19
Участники:
0 раздают, 227 качают (227 участников всего)
Внешние участники:
--- [ Обновить ]
16:01
397
Нет комментариев. Ваш будет первым!