Поиск

1964 (2002) Stanley Turrentine - Hustlin'

1964 (2002) Stanley Turrentine - Hustlin'
Страна-производитель диска (релиза):
USA
Дата записи диска:
24 января 1964
Дата издания диска:
март / апрель 1964
Дата переиздания диска:
2002
Номер по каталогу:
7243 5 40036 2 2
Носитель:
CD
Битрейт аудио:
lossless
Аудиокодек:
FLAC (*.flac)
Тип рипа:
tracks+.cue
Время звучания:
41:08
Наличие сканов:
  • да
Релизёр (источник):
hanswurst
Состав:
  • Stanley Turrentine — Tenor Saxophone
  • Shirley Scott — Organ
  • Kenny Burrell — Guitar
  • Bob Cranshaw — Bass
  • Otis Finch — Drums

01. Trouble (No. 2) (7:49)
02. Love Letters (7:38)
03. The Hustler (6:03)
04. Ladyfingers (6:21)
05. Something Happens To Me (6:15)
06. Goin' Home (7:03)

Лог создания рипа
EAC extraction logfile from 6. January 2006, 17:56 for CD
Stanley Turrentine / Hustlin' [RVG Edition 2002]
Used drive : PLEXTOR CD-R PX-W4824A Adapter: 1 ID: 0
Read mode : Secure with NO C2, accurate stream, disable cache
Read offset correction : 98
Overread into Lead-In and Lead-Out : Yes
Used output format : E:\FLAC\flac.exe (User Defined Encoder)
320 kBit/s
Additional command line options : -8 -V -T "artist=%a" -T "title=%t" -T "album=%g" -T "date=%y" -T "tracknumber=%n" -T "genre=%m" -T "comment=Blue Note Records - The Rudy Van Gelder Edition - 7243 5 40036 2 2" %s
Other options :
Fill up missing offset samples with silence : Yes
Delete leading and trailing silent blocks : No
Installed external ASPI interface
Track 1
Filename E:\Stanley Turrentine - Hustlin' (1964) [FLAC] (RVG Edition 2002)\01 - Trouble (No. 2).wav
Pre-gap length 0:00:02.00
Peak level 97.9 %
Track quality 100.0 %
Test CRC CD18BA5C
Copy CRC CD18BA5C
Copy OK
Track 2
Filename E:\Stanley Turrentine - Hustlin' (1964) [FLAC] (RVG Edition 2002)\02 - Love Letters.wav
Pre-gap length 0:00:02.69
Peak level 96.9 %
Track quality 99.9 %
Test CRC 5C7C9475
Copy CRC 5C7C9475
Copy OK
Track 3
Filename E:\Stanley Turrentine - Hustlin' (1964) [FLAC] (RVG Edition 2002)\03 - The Hustler.wav
Pre-gap length 0:00:02.85
Peak level 95.9 %
Track quality 100.0 %
Test CRC 3EBA7E38
Copy CRC 3EBA7E38
Copy OK
Track 4
Filename E:\Stanley Turrentine - Hustlin' (1964) [FLAC] (RVG Edition 2002)\04 - Ladyfingers.wav
Pre-gap length 0:00:03.33
Peak level 97.0 %
Track quality 100.0 %
Test CRC B0084969
Copy CRC B0084969
Copy OK
Track 5
Filename E:\Stanley Turrentine - Hustlin' (1964) [FLAC] (RVG Edition 2002)\05 - Something Happens To Me.wav
Pre-gap length 0:00:02.38
Peak level 96.3 %
Track quality 100.0 %
Test CRC 6B44B48E
Copy CRC 6B44B48E
Copy OK
Track 6
Filename E:\Stanley Turrentine - Hustlin' (1964) [FLAC] (RVG Edition 2002)\06 - Goin' Home.wav
Pre-gap length 0:00:03.46
Peak level 97.9 %
Track quality 100.0 %
Test CRC EF4BF23C
Copy CRC EF4BF23C
Copy OK
No errors occured
End of status report
14:23
150
RSS
Нет комментариев. Ваш будет первым!