Поиск

1963 Shorty Rogers & His Giants - Jazz Waltz (2021) {RevOla} [24-96]

1963 Shorty Rogers & His Giants - Jazz Waltz (2021) {RevOla} [24-96]
Стили:
Издатель (лейбл):
Носитель:
WEB
Формат:
PCM
Тип рипа:
tracks
Контейнер:
FLAC (*.flac)
Количество каналов:
2.0
Разрядность/ЧД:
24/96
Битрейт аудио:
lossless
Время звучания:
00:40:08
Наличие сканов:
только обложка

01 - I'm Gonna Go Fishin' 04:33
02 - Greensleeves 05:27
03 - Walk On The Wild Side 04:17
04 - Witchcraft 02:57
05 - Be As Children 03:35
06 - Jazz Waltz 04:06
07 - Echoes Of Harlem 04:41
08 - A Taste Of Honey 02:52
09 - Terrence's Farewell 03:34
10 - The Streets Of Laredo 04:06

Состав:
  • Shorty Rogers — flugelhorn, arranger, conductor
  • Joe Burnett, Ollie Mitchell — trumpet, flugelhorn
  • Al Porcino, Ray Triscari — trumpet (tracks 1, 3, 5 & 6)
  • Milt Bernhardt, Harry Betts — trombone (tracks 1, 3, 5 & 6)
  • George Roberts (tracks 1, 3, 5 & 6), Kenneth Shroyer — bass trombone
  • Paul Horn, Bud Shank — alto saxophone, flute
  • Joe Manis — alto saxophone (tracks 1, 3, 5 & 6)
  • Bill Perkins — tenor saxophone (tracks 1, 3, 5 & 6)
  • Bill Hood — baritone saxophone (tracks 1, 3, 5 & 6)
  • Pete Jolly — piano
  • Joe Mondragon — bass
  • Larry Bunker (tracks 1, 3, 5 & 6), Emil Richards (tracks 2, 4 & 7-10) — vibraphone
  • Mel Lewis — drums
Лог проверки качества
foobar2000 1.4.3 / Dynamic Range Meter 1.1.1
log date: 2022-01-11 23:24:48
--------------------------------------------------------------------------------
Analyzed: Shorty Rogers & His Giants / Jazz Waltz
--------------------------------------------------------------------------------
DR         Peak         RMS     Duration Track
--------------------------------------------------------------------------------
DR9        0.00 dB   -11.51 dB      4:34 01-I'm Gonna Go Fishin' (Remastered)
DR8        0.00 dB   -11.14 dB      5:28 02-Greensleeves (Remastered)
DR9        0.00 dB   -11.45 dB      4:17 03-Walk On The Wild Side (Remastered)
DR10       0.00 dB   -12.16 dB      2:57 04-Witchcraft (Remastered)
DR9        0.00 dB   -11.49 dB      3:36 05-Be As Children (Remastered)
DR9        0.00 dB   -11.51 dB      4:07 06-Jazz Waltz (Remastered)
DR10       0.00 dB   -12.46 dB      4:41 07-Echoes Of Harlem (Remastered)
DR8        0.00 dB   -10.43 dB      2:53 08-A Taste Of Honey (Remastered)
DR8        0.00 dB   -10.70 dB      3:34 09-Terrence's Farewell (Remastered)
DR9        0.00 dB   -12.20 dB      4:06 10-The Streets Of Laredo (Remastered)
--------------------------------------------------------------------------------
Number of tracks:  10
Official DR value: DR9
Samplerate:        96000 Hz
Channels:          2
Bits per sample:   24
Bitrate:           2833 kbps
Codec:             FLAC
================================================================================
Приватный:
Нет (DHT включён)
Размер:
821.60 Мб (861,505,303 байт) » файлов: 14
Участники:
0 раздают, 0 качают (0 участников всего)
Внешние участники:
3 раздают, 1 качают (4 участников всего) [ Обновить ]
11:27
402
Нет комментариев. Ваш будет первым!