Поиск

1963 Shirley Horn — Loads Of Love + Shirley Horn With Horns (1990) [2CD]

1963 Shirley Horn — Loads Of Love + Shirley Horn With Horns (1990) [2CD]
Треклист:
Жанр: Vocal Jazz
Год издания диска: 1990
Издатель (лейбл): Polygram Records/Mercury
Номер по каталогу: 843 454-2
Аудиокодек: FLAC (*.flac)
Тип рипа: tracks+.cue
Битрейт аудио: lossless
Продолжительность: 69:19
Источник: вата
Сканы есть
Треклист:
01. Wild Is Love (1:32)
02. Loads Of Love (2:26)
03. My Future Just Passed (2:44)
04. There's A Boat That's Leavin' Soon For New York (2:44)
05. Ten Cents A Dance (3:53)
06. Only The Lonely (3:07)
07. The Second Time Around (3:15)
08. Do It Again (2:59)
09. It's Love (2:04)
10. That's No Joke (2:40)
11. Love For Sale (3:54)
12. Who Am I (2:54)
13. On The Street Where You Live (2:18)
14. The Great City (2:04)
15. That Old Black Magic (2:36)
16. Mack The Knife (3:04)
17. Come Dance With Me (2:16)
18. Let Me Love You (3:07)
19. After You've Gone (3:02)
20. Wouldn't It Be Loverly (3:45)
21. Go Away Little Boy (3:30)
22. I'm In The Mood For Love (2:50)
23. The Good Life (3:14)
24. Wee Small Hours (3:22)
 
 
Лог создания рипа
Exact Audio Copy V0.99 prebeta 4 from 23. January 2008
EAC extraction logfile from 16. April 2009, 2:38
Shirley Horn / Loads of Love + Shirley Horn with Horns
Used drive  : LITE-ON CD-RW SOHR-5238S   Adapter: 5  ID: 1
Read mode               : Secure
Utilize accurate stream : Yes
Defeat audio cache      : Yes
Make use of C2 pointers : No
Read offset correction                      : 6
Overread into Lead-In and Lead-Out          : No
Fill up missing offset samples with silence : Yes
Delete leading and trailing silent blocks   : No
Null samples used in CRC calculations       : Yes
Used interface                              : Installed external ASPI interface
Gap handling                                : Appended to previous track
Used output format : Internal WAV Routines
Sample format      : 44.100 Hz; 16 Bit; Stereo
TOC of the extracted CD
     Track |   Start  |  Length  | Start sector | End sector
    ---------------------------------------------------------
        1  |  0:00.32 |  1:31.63 |        32    |     6919
        2  |  1:32.20 |  2:26.12 |      6920    |    17881
        3  |  3:58.32 |  2:43.38 |     17882    |    30144
        4  |  6:41.70 |  2:43.62 |     30145    |    42431
        5  |  9:25.57 |  3:52.63 |     42432    |    59894
        6  | 13:18.45 |  3:07.12 |     59895    |    73931
        7  | 16:25.57 |  3:15.00 |     73932    |    88556
        8  | 19:40.57 |  2:59.00 |     88557    |   101981
        9  | 22:39.57 |  2:03.50 |    101982    |   111256
       10  | 24:43.32 |  2:40.13 |    111257    |   123269
       11  | 27:23.45 |  3:53.62 |    123270    |   140806
       12  | 31:17.32 |  2:54.00 |    140807    |   153856
       13  | 34:11.32 |  2:17.63 |    153857    |   164194
       14  | 36:29.20 |  2:04.12 |    164195    |   173506
       15  | 38:33.32 |  2:36.25 |    173507    |   185231
       16  | 41:09.57 |  3:03.50 |    185232    |   199006
       17  | 44:13.32 |  2:16.00 |    199007    |   209206
       18  | 46:29.32 |  3:07.13 |    209207    |   223244
       19  | 49:36.45 |  3:01.50 |    223245    |   236869
       20  | 52:38.20 |  3:44.62 |    236870    |   253731
       21  | 56:23.07 |  3:30.13 |    253732    |   269494
       22  | 59:53.20 |  2:50.12 |    269495    |   282256
       23  | 62:43.32 |  3:14.00 |    282257    |   296806
       24  | 65:57.32 |  3:21.38 |    296807    |   311919
Track  1
     Filename J:\EAC\Shirley L+H\01 - Wild Is Love.wav
     Pre-gap length  0:00:02.32
     Peak level 74.2 %
     Track quality 100.0 %
     Test CRC 025A7742
     Copy CRC 025A7742
     Track not present in AccurateRip database
     Copy OK
Track  2
     Filename J:\EAC\Shirley L+H\02 - Loads of Love.wav
     Pre-gap length  0:00:01.63
     Peak level 92.2 %
     Track quality 100.0 %
     Test CRC 5020CF64
     Copy CRC 5020CF64
     Track not present in AccurateRip database
     Copy OK
Track  3
     Filename J:\EAC\Shirley L+H\03 - My Future Just Passed.wav
     Pre-gap length  0:00:01.50
     Peak level 72.9 %
     Track quality 100.0 %
     Test CRC 2086EF8F
     Copy CRC 2086EF8F
     Track not present in AccurateRip database
     Copy OK
Track  4
     Filename J:\EAC\Shirley L+H\04 - There's a Boat That's Leavin' Soon for New York.wav
     Pre-gap length  0:00:02.13
     Peak level 92.6 %
     Track quality 100.0 %
     Test CRC 5F431037
     Copy CRC 5F431037
     Track not present in AccurateRip database
     Copy OK
Track  5
     Filename J:\EAC\Shirley L+H\05 - Ten Cents a Dance.wav
     Pre-gap length  0:00:01.37
     Peak level 75.9 %
     Track quality 100.0 %
     Test CRC 38ABB44E
     Copy CRC 38ABB44E
     Track not present in AccurateRip database
     Copy OK
Track  6
     Filename J:\EAC\Shirley L+H\06 - Only the Lonely.wav
     Pre-gap length  0:00:02.63
     Peak level 62.6 %
     Track quality 100.0 %
     Test CRC D9A9031B
     Copy CRC D9A9031B
     Track not present in AccurateRip database
     Copy OK
Track  7
     Filename J:\EAC\Shirley L+H\07 - The Second Time Around.wav
     Pre-gap length  0:00:00.62
     Peak level 66.0 %
     Track quality 100.0 %
     Test CRC A4543444
     Copy CRC A4543444
     Track not present in AccurateRip database
     Copy OK
Track  8
     Filename J:\EAC\Shirley L+H\08 - Do It Again.wav
     Pre-gap length  0:00:01.00
     Peak level 83.8 %
     Track quality 99.9 %
     Test CRC 56CFCAEB
     Copy CRC 56CFCAEB
     Track not present in AccurateRip database
     Copy OK
Track  9
     Filename J:\EAC\Shirley L+H\09 - It's Love.wav
     Pre-gap length  0:00:01.25
     Peak level 84.2 %
     Track quality 100.0 %
     Test CRC EECC7394
     Copy CRC EECC7394
     Track not present in AccurateRip database
     Copy OK
Track 10
     Filename J:\EAC\Shirley L+H\10 - That's No Joke.wav
     Pre-gap length  0:00:01.25
     Peak level 98.1 %
     Track quality 100.0 %
     Test CRC 0B71A2D0
     Copy CRC 0B71A2D0
     Track not present in AccurateRip database
     Copy OK
Track 11
     Filename J:\EAC\Shirley L+H\11 - Love For Sale.wav
     Pre-gap length  0:00:01.00
     Peak level 66.3 %
     Track quality 100.0 %
     Test CRC BF8DCD5D
     Copy CRC BF8DCD5D
     Track not present in AccurateRip database
     Copy OK
Track 12
     Filename J:\EAC\Shirley L+H\12 - Who Am I.wav
     Pre-gap length  0:00:02.00
     Peak level 56.5 %
     Track quality 99.9 %
     Test CRC E1FE18E9
     Copy CRC E1FE18E9
     Track not present in AccurateRip database
     Copy OK
Track 13
     Filename J:\EAC\Shirley L+H\13 - On the Street Where You Live.wav
     Pre-gap length  0:00:03.00
     Peak level 82.9 %
     Track quality 100.0 %
     Test CRC 88E13259
     Copy CRC 88E13259
     Track not present in AccurateRip database
     Copy OK
Track 14
     Filename J:\EAC\Shirley L+H\14 - The Great City.wav
     Pre-gap length  0:00:01.13
     Peak level 92.4 %
     Track quality 100.0 %
     Test CRC F57BCA6A
     Copy CRC F57BCA6A
     Track not present in AccurateRip database
     Copy OK
Track 15
     Filename J:\EAC\Shirley L+H\15 - That Old Black Magic.wav
     Pre-gap length  0:00:00.25
     Peak level 72.4 %
     Track quality 100.0 %
     Test CRC 2360F39C
     Copy CRC 2360F39C
     Track not present in AccurateRip database
     Copy OK
Track 16
     Filename J:\EAC\Shirley L+H\16 - Mack the Knife.wav
     Pre-gap length  0:00:01.00
     Peak level 94.6 %
     Track quality 100.0 %
     Test CRC 4F12842E
     Copy CRC 4F12842E
     Track not present in AccurateRip database
     Copy OK
Track 17
     Filename J:\EAC\Shirley L+H\17 - Come Dance With Me.wav
     Pre-gap length  0:00:01.37
     Peak level 82.9 %
     Track quality 100.0 %
     Test CRC FC1C58DF
     Copy CRC FC1C58DF
     Track not present in AccurateRip database
     Copy OK
Track 18
     Filename J:\EAC\Shirley L+H\18 - Let Me Love You.wav
     Pre-gap length  0:00:01.25
     Peak level 81.0 %
     Track quality 100.0 %
     Test CRC 4B7769C4
     Copy CRC 4B7769C4
     Track not present in AccurateRip database
     Copy OK
Track 19
     Filename J:\EAC\Shirley L+H\19 - After You're Gone.wav
     Pre-gap length  0:00:00.63
     Peak level 87.9 %
     Track quality 99.9 %
     Test CRC 387D95A9
     Copy CRC 387D95A9
     Track not present in AccurateRip database
     Copy OK
Track 20
     Filename J:\EAC\Shirley L+H\20 - Wouldn't It Be Loverly.wav
     Pre-gap length  0:00:01.13
     Peak level 81.2 %
     Track quality 100.0 %
     Test CRC E3096796
     Copy CRC E3096796
     Track not present in AccurateRip database
     Copy OK
Track 21
     Filename J:\EAC\Shirley L+H\21 - Go Away Little Boy.wav
     Pre-gap length  0:00:01.25
     Peak level 60.8 %
     Track quality 99.9 %
     Test CRC DF38E48D
     Copy CRC DF38E48D
     Track not present in AccurateRip database
     Copy OK
Track 22
     Filename J:\EAC\Shirley L+H\22 - I'm In the Mood For Love.wav
     Pre-gap length  0:00:02.25
     Peak level 60.9 %
     Track quality 100.0 %
     Test CRC C85C0C9A
     Copy CRC C85C0C9A
     Track not present in AccurateRip database
     Copy OK
Track 23
     Filename J:\EAC\Shirley L+H\23 - The Good Life.wav
     Pre-gap length  0:00:02.00
     Peak level 74.6 %
     Track quality 100.0 %
     Test CRC 8B359270
     Copy CRC 8B359270
     Track not present in AccurateRip database
     Copy OK
Track 24
     Filename J:\EAC\Shirley L+H\24 - Wee Small Hours.wav
     Pre-gap length  0:00:01.50
     Peak level 69.7 %
     Track quality 100.0 %
     Test CRC 16387A47
     Copy CRC 16387A47
     Track not present in AccurateRip database
     Copy OK
None of the tracks are present in the AccurateRip database
No errors occurred
End of status report
 
 
Содержание индексной карты (.CUE)
REM GENRE Jazz
REM DATE 1963
REM DISCID 72103E18
REM COMMENT "ExactAudioCopy v0.99pb4"
PERFORMER "Shirley Horn"
TITLE "Loads of Love + Shirley Horn with Horns"
FILE "01 - Wild Is Love.flac" WAVE
  TRACK 01 AUDIO
    TITLE "Wild Is Love"
    PERFORMER "Shirley Horn"
    PREGAP 00:00:32
    INDEX 01 00:00:00
  TRACK 02 AUDIO
    TITLE "Loads of Love"
    PERFORMER "Shirley Horn"
    INDEX 00 01:30:00
FILE "02 - Loads of Love.flac" WAVE
    INDEX 01 00:00:00
  TRACK 03 AUDIO
    TITLE "My Future Just Passed"
    PERFORMER "Shirley Horn"
    INDEX 00 02:24:37
FILE "03 - My Future Just Passed.flac" WAVE
    INDEX 01 00:00:00
  TRACK 04 AUDIO
    TITLE "There's a Boat That's Leavin' Soon for New York"
    PERFORMER "Shirley Horn"
    INDEX 00 02:41:25
FILE "04 - There's a Boat That's Leavin' Soon for New York.flac" WAVE
    INDEX 01 00:00:00
  TRACK 05 AUDIO
    TITLE "Ten Cents a Dance"
    PERFORMER "Shirley Horn"
    INDEX 00 02:42:25
FILE "05 - Ten Cents a Dance.flac" WAVE
    INDEX 01 00:00:00
  TRACK 06 AUDIO
    TITLE "Only the Lonely"
    PERFORMER "Shirley Horn"
    INDEX 00 03:50:00
FILE "06 - Only the Lonely.flac" WAVE
    INDEX 01 00:00:00
  TRACK 07 AUDIO
    TITLE "The Second Time Around"
    PERFORMER "Shirley Horn"
    INDEX 00 03:06:25
FILE "07 - The Second Time Around.flac" WAVE
    INDEX 01 00:00:00
  TRACK 08 AUDIO
    TITLE "Do It Again"
    PERFORMER "Shirley Horn"
    INDEX 00 03:14:00
FILE "08 - Do It Again.flac" WAVE
    INDEX 01 00:00:00
  TRACK 09 AUDIO
    TITLE "It's Love"
    PERFORMER "Shirley Horn"
    INDEX 00 02:57:50
FILE "09 - It's Love.flac" WAVE
    INDEX 01 00:00:00
  TRACK 10 AUDIO
    TITLE "That's No Joke"
    PERFORMER "Shirley Horn"
    INDEX 00 02:02:25
FILE "10 - That's No Joke.flac" WAVE
    INDEX 01 00:00:00
  TRACK 11 AUDIO
    TITLE "Love For Sale"
    PERFORMER "Shirley Horn"
    INDEX 00 02:39:13
FILE "11 - Love For Sale.flac" WAVE
    INDEX 01 00:00:00
  TRACK 12 AUDIO
    TITLE "Who Am I"
    PERFORMER "Shirley Horn"
    INDEX 00 03:51:62
FILE "12 - Who Am I.flac" WAVE
    INDEX 01 00:00:00
  TRACK 13 AUDIO
    TITLE "On the Street Where You Live"
    PERFORMER "Shirley Horn"
    INDEX 00 02:51:00
FILE "13 - On the Street Where You Live.flac" WAVE
    INDEX 01 00:00:00
  TRACK 14 AUDIO
    TITLE "The Great City"
    PERFORMER "Shirley Horn"
    INDEX 00 02:16:50
FILE "14 - The Great City.flac" WAVE
    INDEX 01 00:00:00
  TRACK 15 AUDIO
    TITLE "That Old Black Magic"
    PERFORMER "Shirley Horn"
    INDEX 00 02:03:62
FILE "15 - That Old Black Magic.flac" WAVE
    INDEX 01 00:00:00
  TRACK 16 AUDIO
    TITLE "Mack the Knife"
    PERFORMER "Shirley Horn"
    INDEX 00 02:35:25
FILE "16 - Mack the Knife.flac" WAVE
    INDEX 01 00:00:00
  TRACK 17 AUDIO
    TITLE "Come Dance With Me"
    PERFORMER "Shirley Horn"
    INDEX 00 03:02:13
FILE "17 - Come Dance With Me.flac" WAVE
    INDEX 01 00:00:00
  TRACK 18 AUDIO
    TITLE "Let Me Love You"
    PERFORMER "Shirley Horn"
    INDEX 00 02:14:50
FILE "18 - Let Me Love You.flac" WAVE
    INDEX 01 00:00:00
  TRACK 19 AUDIO
    TITLE "After You're Gone"
    PERFORMER "Shirley Horn"
    INDEX 00 03:06:25
FILE "19 - After You're Gone.flac" WAVE
    INDEX 01 00:00:00
  TRACK 20 AUDIO
    TITLE "Wouldn't It Be Loverly"
    PERFORMER "Shirley Horn"
    INDEX 00 03:00:37
FILE "20 - Wouldn't It Be Loverly.flac" WAVE
    INDEX 01 00:00:00
  TRACK 21 AUDIO
    TITLE "Go Away Little Boy"
    PERFORMER "Shirley Horn"
    INDEX 00 03:43:37
FILE "21 - Go Away Little Boy.flac" WAVE
    INDEX 01 00:00:00
  TRACK 22 AUDIO
    TITLE "I'm In the Mood For Love"
    PERFORMER "Shirley Horn"
    INDEX 00 03:27:63
FILE "22 - I'm In the Mood For Love.flac" WAVE
    INDEX 01 00:00:00
  TRACK 23 AUDIO
    TITLE "The Good Life"
    PERFORMER "Shirley Horn"
    INDEX 00 02:48:12
FILE "23 - The Good Life.flac" WAVE
    INDEX 01 00:00:00
  TRACK 24 AUDIO
    TITLE "Wee Small Hours"
    PERFORMER "Shirley Horn"
    INDEX 00 03:12:25
FILE "24 - Wee Small Hours.flac" WAVE
    INDEX 01 00:00:00
По всем вопросам пишите личное сообщение пользователю M0p94ok.
22:11
461
Нет комментариев. Ваш будет первым!