Поиск

1963 Paul Bley - Footlose (complete) {Savoy 9050}

1963 Paul Bley - Footlose (complete) {Savoy 9050}
Издатель (лейбл):
Треклист:
Страна: Japan
Номер по каталогу: 9050
Год выпуска: 1963
Формат: FLAC (tracks)
Битрейт аудио: lossless
Продолжительность: 1:13:13
Треклист:
01. Floater
02. When will the blues leave
03. Around again
04. Stereophrenic
05. The circle with the hole in the middle
06. Around again
07. Syndrome
08. Ballad No1
09. King Korn
10. King Korn ...alt take
11. Ballad No2
12. Cousins
13. Vashkar
14. Turns
15. Ballad No4
Доп. информация:
Японский релиз наверное, самого лучшего альбома Paul Bley. Есть ещё одна, более короткая версия. Их, по утверждению AMG, около десятка; с разными обложками и наборами треков. Эта версия, как утвердают японцы, "полная".
 
Отчёт EAC
EAC extraction logfile from 17. September 2006, 2:21 for CD
Paul Bley / Footloose (complete)
Used drive : HL-DT-STDVDRRW GSA-4166B Adapter: 1 ID: 1
Read mode : Secure with NO C2, accurate stream, disable cache
Read offset correction : 102
Overread into Lead-In and Lead-Out : Yes
Used output format : C:\Program Files\FLAC\flac.exe (User Defined Encoder)
320 kBit/s
Additional command line options : -4 -V -T "artist=%a" -T "title=%t" -T "album=%g" -T "date=%y" -T "tracknumber=%n" -T "genre=%m" %s
Other options :
Fill up missing offset samples with silence : Yes
Delete leading and trailing silent blocks : No
Native Win32 interface for Win NT & 2000
Track 1
Filename C:\Documents and Settings\Martin\Mijn documenten\Paul Bley - Footloose (1962 - 62)[flac]\01 - Floater .wav
Pre-gap length 0:00:02.00
Peak level 79.7 %
Track quality 100.0 %
Test CRC D6FB8304
Copy CRC D6FB8304
Copy OK
Track 2
Filename C:\Documents and Settings\Martin\Mijn documenten\Paul Bley - Footloose (1962 - 62)[flac]\02 - When will the blues leave .wav
Pre-gap length 0:00:02.13
Peak level 94.5 %
Track quality 99.9 %
Test CRC 0E6B8D24
Copy CRC 0E6B8D24
Copy OK
Track 3
Filename C:\Documents and Settings\Martin\Mijn documenten\Paul Bley - Footloose (1962 - 62)[flac]\03 - Around again .wav
Pre-gap length 0:00:02.02
Peak level 100.0 %
Track quality 99.9 %
Test CRC 0EF49EAE
Copy CRC 0EF49EAE
Copy OK
Track 4
Filename C:\Documents and Settings\Martin\Mijn documenten\Paul Bley - Footloose (1962 - 62)[flac]\04 - Stereophrenic .wav
Pre-gap length 0:00:02.23
Peak level 80.3 %
Track quality 100.0 %
Test CRC 48D0A29B
Copy CRC 48D0A29B
Copy OK
Track 5
Filename C:\Documents and Settings\Martin\Mijn documenten\Paul Bley - Footloose (1962 - 62)[flac]\05 - The circle with the hole in the middle .wav
Pre-gap length 0:00:02.12
Peak level 65.0 %
Track quality 100.0 %
Test CRC DB0CE7B9
Copy CRC DB0CE7B9
Copy OK
Track 6
Filename C:\Documents and Settings\Martin\Mijn documenten\Paul Bley - Footloose (1962 - 62)[flac]\06 - Around again .wav
Pre-gap length 0:00:02.23
Peak level 77.4 %
Track quality 100.0 %
Test CRC 24169A18
Copy CRC 24169A18
Copy OK
Track 7
Filename C:\Documents and Settings\Martin\Mijn documenten\Paul Bley - Footloose (1962 - 62)[flac]\07 - Syndrome .wav
Pre-gap length 0:00:02.18
Peak level 100.0 %
Track quality 99.9 %
Test CRC 0EDAC8F2
Copy CRC 0EDAC8F2
Copy OK
Track 8
Filename C:\Documents and Settings\Martin\Mijn documenten\Paul Bley - Footloose (1962 - 62)[flac]\08 - Ballad No1 .wav
Pre-gap length 0:00:02.10
Peak level 60.1 %
Track quality 100.0 %
Test CRC F19047EE
Copy CRC F19047EE
Copy OK
Track 9
Filename C:\Documents and Settings\Martin\Mijn documenten\Paul Bley - Footloose (1962 - 62)[flac]\09 - King Korn .wav
Pre-gap length 0:00:02.02
Peak level 72.6 %
Track quality 100.0 %
Test CRC ECDD234F
Copy CRC ECDD234F
Copy OK
Track 10
Filename C:\Documents and Settings\Martin\Mijn documenten\Paul Bley - Footloose (1962 - 62)[flac]\10 - King Korn ...alt take .wav
Pre-gap length 0:00:02.00
Peak level 77.4 %
Track quality 100.0 %
Test CRC 5AACE5EC
Copy CRC 5AACE5EC
Copy OK
Track 11
Filename C:\Documents and Settings\Martin\Mijn documenten\Paul Bley - Footloose (1962 - 62)[flac]\11 - Ballad No2 .wav
Pre-gap length 0:00:01.67
Peak level 41.5 %
Track quality 100.0 %
Test CRC 3D6B8992
Copy CRC 3D6B8992
Copy OK
Track 12
Filename C:\Documents and Settings\Martin\Mijn documenten\Paul Bley - Footloose (1962 - 62)[flac]\12 - Cousins .wav
Pre-gap length 0:00:02.03
Peak level 52.1 %
Track quality 100.0 %
Test CRC B6534852
Copy CRC B6534852
Copy OK
Track 13
Filename C:\Documents and Settings\Martin\Mijn documenten\Paul Bley - Footloose (1962 - 62)[flac]\13 - Vashkar .wav
Pre-gap length 0:00:02.13
Peak level 85.0 %
Track quality 100.0 %
Test CRC AF7299DA
Copy CRC AF7299DA
Copy OK
Track 14
Filename C:\Documents and Settings\Martin\Mijn documenten\Paul Bley - Footloose (1962 - 62)[flac]\14 - Turns .wav
Pre-gap length 0:00:02.27
Peak level 70.9 %
Track quality 100.0 %
Test CRC C94D17DE
Copy CRC C94D17DE
Copy OK
Track 15
Filename C:\Documents and Settings\Martin\Mijn documenten\Paul Bley - Footloose (1962 - 62)[flac]\15 - Ballad No4 .wav
Pre-gap length 0:00:02.05
Peak level 48.7 %
Track quality 100.0 %
Test CRC 963B6203
Copy CRC 963B6203
Copy OK
No errors occured
End of status report
Приватный:
Нет (DHT включён)
Размер:
386.24 Мб (404,998,730 байт) » файлов: 25
Участники:
0 раздают, 0 качают (0 участников всего)
Внешние участники:
5 раздают, 1 качают (6 участников всего) [ Обновить ]
Есть вопросы - пишите личное сообщение пользователю M0p94ok.
22:37
158
Нет комментариев. Ваш будет первым!