Поиск

1963 (2003) Stan Getz - Reflections {Verve MGM V6-8554 (523 322-2)}

1963 (2003) Stan Getz - Reflections {Verve MGM V6-8554 (523 322-2)}
Стили:
Издатель (лейбл):

Состав:
  • James Buffington    French Horn
  • Kenny Burrell    Guitar
  • Bob Bushnell    Bass
  • Don Butterfield    Tuba
  • Candido Camero    Drums, Percussion
  • George Devens    Percussion, Vibraphone
  • Ken Druker    Executive Producer
  • George Duvivier    Bass
  • Sidney Edwards    Violin
  • Lewis Eley    Violin
  • Paul Gershman    Violin
  • Stan Getz    Sax (Tenor)
  • Harry Glickman    Violin
  • Urbie Green    Trombone
  • Louis Haber    Violin
  • Allen Hanlon    Guitar
  • Julius Held    Violin
  • Ralph Hollander    Violin
  • Jack Jennings    Drums, Percussion
  • Osie Johnson    Percussion
  • Hank Jones    Piano
  • Bryan Koniarz    Producer
  • Leo Kruzuczek    Violin
  • Mel Lewis    Drums, Percussion
  • Harry Lookofsky    Violin
  • Jack Maher    Liner Notes
  • Irvin "Marky" Markowitz    Trumpet
  • Charles McCracken    Cello
  • Claus Ogerman    Arranger
  • Raoul Poliakin    Violin
  • Phil Ramone    Engineer
  • Ernie Royal    Trumpet
  • Lalo Schifrin    Arranger, Composer, Conductor
  • Harvey Shapiro    Cello
  • Morris Stonzek    Violin
  • Willard Suyker    Guitar
  • Creed Taylor    Producer

Recorded at A&R Recording, New York

 
Лог создания рипа

EAC extraction logfile from 18. October 2006, 12:38 for CD
Stan Getz / Reflections
Used drive: HL-DT-STDVD-ROM GDR8162B Adapter: 1 ID: 1
Read mode: Secure with NO C2, accurate stream, disable cache
Read offset correction: 102
Overread into Lead-In and Lead-Out: No
Used output format: Internal WAV Routines
44.100 Hz; 16 Bit; Stereo
Other options :
Fill up missing offset samples with silence: Yes
Delete leading and trailing silent blocks: No
Installed external ASPI interface
Track 1
Filename C:\Eac\Stan Getz — Reflections (1963) [FLAC]\01 Moonlight In Vermont.wav
Pre-gap length 0:00:02.00
Peak level 100.0 %
Track quality 100.0 %
Test CRC 034C5F60
Copy CRC 034C5F60
Copy OK
Track 2
Filename C:\Eac\Stan Getz — Reflections (1963) [FLAC]\02 If Ever I Would Leave You.wav
Peak level 100.0 %
Track quality 100.0 %
Test CRC 5E438EA3
Copy CRC 5E438EA3
Copy OK
Track 3
Filename C:\Eac\Stan Getz — Reflections (1963) [FLAC]\03 Love.wav
Peak level 98.3 %
Track quality 100.0 %
Test CRC 36D2211B
Copy CRC 36D2211B
Copy OK
Track 4
Filename C:\Eac\Stan Getz — Reflections (1963) [FLAC]\04 Reflections.wav
Peak level 100.0 %
Track quality 100.0 %
Test CRC 6CDFE77C
Copy CRC 6CDFE77C
Copy OK
Track 5
Filename C:\Eac\Stan Getz — Reflections (1963) [FLAC]\05 Sleeping Bee.wav
Peak level 100.0 %
Track quality 100.0 %
Test CRC 1A92BBC0
Copy CRC 1A92BBC0
Copy OK
Track 6
Filename C:\Eac\Stan Getz — Reflections (1963) [FLAC]\06 Charade.wav
Peak level 100.0 %
Track quality 100.0 %
Test CRC A1E7EF50
Copy CRC A1E7EF50
Copy OK
Track 7
Filename C:\Eac\Stan Getz — Reflections (1963) [FLAC]\07 Early Autumn.wav
Pre-gap length 0:00:01.49
Peak level 100.0 %
Track quality 100.0 %
Test CRC A6785B8C
Copy CRC A6785B8C
Copy OK
Track 8
Filename C:\Eac\Stan Getz — Reflections (1963) [FLAC]\08 Penthouse Serenade.wav
Peak level 100.0 %
Track quality 100.0 %
Test CRC 1A0F26FA
Copy CRC 1A0F26FA
Copy OK
Track 9
Filename C:\Eac\Stan Getz — Reflections (1963) [FLAC]\09 Spring Can Really Hang You Up The Most.wav
Peak level 100.0 %
Track quality 99.9 %
Test CRC 5CA7C2A3
Copy CRC 5CA7C2A3
Copy OK
Track 10
Filename C:\Eac\Stan Getz — Reflections (1963) [FLAC]\10 Nitetime Street.wav
Peak level 100.0 %
Track quality 99.9 %
Test CRC 357A69DC
Copy CRC 357A69DC
Copy OK
Track 11
Filename C:\Eac\Stan Getz — Reflections (1963) [FLAC]\11 Blowin' In The Wind.wav
Pre-gap length 0:00:01.12
Peak level 100.0 %
Track quality 100.0 %
Test CRC 32A1315E
Copy CRC 32A1315E
Copy OK
No errors occured
End of status report

 

Номер по каталогу: V6-8554 (523 322-2)
Дата записи диска: 21, 22 и 28 октября 1963
Дата издания диска: март 1964
Дата переиздания диска: 2003
Носитель: CD
Битрейт аудио: lossless
Аудиокодек: FLAC (*.flac)
Тип рипа: tracks
Время звучания: 32:56
Наличие сканов: да
Релизёр (источник): mrimidalv

Треклист:
01. Moonlight In Vermont  (02:25)
02. If Ever I Would Leave You  (02:14)
03. Love  (02:41)
04. Reflections  (02:42)
05. Sleeping Bee (02:41)
06. Charade (02:38)
07. Early Autumn (04:01)
08. Penthouse Serenade  (03:14)
09. Spring Can Really Hang You Up The Most  (03:57)
10. Nitetime Street (03:51)
11. Blowin' In The Wind  (02:32)

Приватный:
Нет (DHT включён)
Размер:
231.02 Мб (242,238,760 байт) » файлов: 20
Участники:
2 раздают, 0 качают (2 участников всего)
Внешние участники:
9 раздают, 3 качают (12 участников всего) [ Обновить ]
20:59
125
RSS
Нет комментариев. Ваш будет первым!