Поиск

1963 (1998) Jimmy Smith - Any Number Can Win {Verve 557 447-2}

1963 (1998) Jimmy Smith - Any Number Can Win {Verve 557 447-2}
Страна-производитель диска (релиза):
Russia
Дата записи диска:
10-29 июля 1963
Дата издания диска:
1963
Дата переиздания диска:
1998
Издатель (лейбл):
Номер по каталогу:
557 447-2
Носитель:
CD
Битрейт аудио:
lossless
Аудиокодек:
APE (*.ape)
Тип рипа:
image+.cue
Время звучания:
36:15
Наличие сканов:
  • да
Релизёр (источник):
spiderc@t
Состав:
  • Jimmy Smith (organ)
  • Jimmy Maxwell, Joe Newman, James Sedlar, Charlie Shavers, Snooky Young (tpt);
  • Jimmy Cleveland, Paul Faulise, Melba Liston, Kai Winding (trmb);
  • Jerry Dodgion, Marvin Halladay, Budd Johnson, Seldon Powell, Jerome Richardson, Phil Woods (woodw);
  • Kenny Burrell, Vince Gambella, Billy Mure (g);
  • Bob Bushnell, Art Davis, George Duvivier, Milt Hinton (b);
  • Bobby Donaldson, Mel Lewis, Ed Shaughnessey (d);
  • Doug Alien, George Devens, Art Marotti (perc);
  • Billy Byers, Claus Ogerman (arr)
01. You Came a Long Way From St. Louis 4:21
02. The Ape Woman 3:21
03. Georgia on My Mind 2:28
04. G'won Train 4:21
05. Theme From Any Number Can Win 2:10
06. What'd I Say? 2:51
07. The Sermon 7:40
08. Ruby 2:20
09. Tubs 2:48
10. Blues for C. A. 3:43        

Записано в New York, NY, Van Gelder Recording Studio, Englewood, CA

          
Лог создания рипа
<spoiler title="Лог создания рипа"><pre>Exact Audio Copy V0.99 prebeta 3 from 28. July 2007
EAC extraction logfile from 27. December 2007, 23:30
Jimmy Smith / Any Number Can Win
Used drive : PLEXTOR CD-R PREMIUM Adapter: 1 ID: 0
Read mode : Secure
Utilize accurate stream : Yes
Defeat audio cache : Yes
Make use of C2 pointers : No
Read offset correction : 30
Overread into Lead-In and Lead-Out : Yes
Fill up missing offset samples with silence : Yes
Delete leading and trailing silent blocks : No
Null samples used in CRC calculations : No
Used interface : Installed external ASPI interface
Used output format : Internal WAV Routines
Sample format : 44.100 Hz; 16 Bit; Stereo
TOC of the extracted CD Track | Start | Length | Start sector | End sector --------------------------------------------------------- 1 | 0:00.00 | 4:21.70 | 0 | 19644 2 | 4:21.70 | 3:22.32 | 19645 | 34826 3 | 7:44.27 | 2:28.70 | 34827 | 45996 4 | 10:13.22 | 4:21.58 | 45997 | 65629 5 | 14:35.05 | 2:12.22 | 65630 | 75551 6 | 16:47.27 | 2:52.33 | 75552 | 88484 7 | 19:39.60 | 7:42.40 | 88485 | 123174 8 | 27:22.25 | 2:21.12 | 123175 | 133761 9 | 29:43.37 | 2:48.53 | 133762 | 146414 10 | 32:32.15 | 3:43.30 | 146415 | 163169
Range status and errors
Selected range Filename D:\My Documents\My Music\Images\my archive\CD\Jimmy Smith - Any Number Can Win\Jimmy Smith - Any Number Can Win.wav Peak level 99.9 % Range quality 100.0 % Copy CRC 825E5333 Copy OK
No errors occurred
AccurateRip summary
Track 1 cannot be verified as accurate (confidence 1) [FF3D866A], AccurateRip returned [7D3FE137]
Track 2 cannot be verified as accurate (confidence 1) [131B0FA6], AccurateRip returned [51D2F3EC]
Track 3 cannot be verified as accurate (confidence 1) [7CA287F9], AccurateRip returned [68DF28AF]
Track 4 cannot be verified as accurate (confidence 1) [4D42692D], AccurateRip returned [F02CE115]
Track 5 cannot be verified as accurate (confidence 1) [C395A070], AccurateRip returned [52751066]
Track 6 cannot be verified as accurate (confidence 1) [640C38F5], AccurateRip returned [1D7BFA77]
Track 7 cannot be verified as accurate (confidence 1) [2C7D3942], AccurateRip returned [D6FC0526]
Track 8 cannot be verified as accurate (confidence 1) [EEF26F6D], AccurateRip returned [DDEAC4A6]
Track 9 cannot be verified as accurate (confidence 1) [30CE98C7], AccurateRip returned [8BEEA0E5]
Track 10 cannot be verified as accurate (confidence 1) [4DC6FBCE], AccurateRip returned [611DF306]
No tracks could be verified as accurate
You may have a different pressing from the one(s) in the database
End of status report</pre></spoiler>
Приватный:
Нет (DHT включён)
Размер:
233.57 Мб (244,917,107 байт) » файлов: 7
Участники:
0 раздают, 2 качают (2 участников всего)
Внешние участники:
--- [ Обновить ]
22:20
72
RSS
Нет комментариев. Ваш будет первым!