Поиск

1962 Stephane Grappelli - Stephane Grappelli (2020) {Archive of Folk Jazz Music} [24-44.1]

1962 Stephane Grappelli - Stephane Grappelli (2020) {Archive of Folk Jazz Music} [24-44.1]
Носитель:
WEB
Формат:
PCM
Тип рипа:
tracks
Контейнер:
FLAC (*.flac)
Количество каналов:
2.0
Разрядность/ЧД:
24/44,1
Битрейт аудио:
lossless
Время звучания:
00:44:06
Наличие сканов:
только обложка

01 - Django 04:54
02 - Nuages 04:25
03 - Alabamy Bound 03:29
04 - You'd Better Go Now 02:51
05 - Le Tien 03:20
06 - Like Someone in Love 03:36
07 - Minor Swing 04:00
08 - Daphne 03:18
09 - Soft Winds 03:40
10 - Makin' Whoopee 03:29
11 - How About You 03:36
12 - Pent up House 03:28

Состав:
  • Bass – Guy Pedersen
  • Drums – Daniel Humair
  • Electric Guitar – Pierre Cavalli
  • Guitar – Léo Petit
  • Violin – Stephane Grappelly
Лог проверки качества
foobar2000 1.4.3 / Dynamic Range Meter 1.1.1
log date: 2021-07-21 18:52:57
--------------------------------------------------------------------------------
Analyzed: Stephane Grappelli / Stephane Grappelli
--------------------------------------------------------------------------------
DR         Peak         RMS     Duration Track
--------------------------------------------------------------------------------
DR9       -1.21 dB   -12.44 dB      4:55 01-Django
DR9       -1.21 dB   -12.46 dB      4:26 02-Nuages
DR8       -1.21 dB   -10.65 dB      3:30 03-Alabamy Bound
DR9       -1.21 dB   -12.54 dB      2:51 04-You'd Better Go Now
DR10      -1.21 dB   -12.50 dB      3:21 05-Le Tien
DR9       -1.21 dB   -12.04 dB      3:36 06-Like Someone in Love
DR10      -1.21 dB   -13.10 dB      4:01 07-Minor Swing
DR9       -1.21 dB   -12.33 dB      3:19 08-Daphne
DR10      -1.21 dB   -13.54 dB      3:40 09-Soft Winds
DR9       -1.21 dB   -12.29 dB      3:30 10-Makin' Whoopee
DR10      -1.21 dB   -13.13 dB      3:37 11-How About You
DR8       -1.21 dB   -10.86 dB      3:29 12-Pent up House
--------------------------------------------------------------------------------
Number of tracks:  12
Official DR value: DR9
Samplerate:        44100 Hz
Channels:          2
Bits per sample:   24
Bitrate:           1592 kbps
Codec:             FLAC
================================================================================
Приватный:
Нет (DHT включён)
Размер:
507.91 Мб (532,580,148 байт) » файлов: 18
Участники:
0 раздают, 0 качают (0 участников всего)
Внешние участники:
3 раздают, 1 качают (4 участников всего) [ Обновить ]
17:15
538
Нет комментариев. Ваш будет первым!