Поиск

1962 Les McCann - Les McCann Ltd. in New York (2021) {Music Manager} [24-48]

1962 Les McCann - Les McCann Ltd. in New York (2021) {Music Manager} [24-48]
Стили:
Место записи:
Pacific Jazz Studios, LA, CA; Village Gate, New York, NY
Дата переиздания диска:
22 июня 2021
Издатель (лейбл):
Носитель:
WEB
Формат:
PCM
Тип рипа:
tracks
Контейнер:
FLAC (*.flac)
Количество каналов:
2.0
Разрядность/ЧД:
24/48
Битрейт аудио:
lossless
Время звучания:
00:39:59
Наличие сканов:
только обложка

Треклист:

01 - Chip Monck 07:46
02 - Fayth, You're... 06:10
03 - Twist Chacha 07:42
04 - A Little 3/4 for God and Co. 09:25
05 - Maxie's Changes 08:56

Состав:
  • Curtis Amy    Composer, Sax (Tenor)
  • Richard Bock    Engineer, Producer
  • Michael Cuscuna    Producer
  • Frank Haynes    Sax (Tenor)
  • Bobby Hutcherson    Composer, Vibraphone
  • Ron Jefferson    Drums
  • Herbie Lewis    Bass
  • Les McCann    Composer, Keyboards, Liner Notes, Piano, Vocals
  • Blue Mitchell    Trumpet
  • Stanley Turrentine    Sax (Tenor)
Лог проверки качества
foobar2000 1.4.3 / Dynamic Range Meter 1.1.1
log date: 2021-07-16 18:17:15

--------------------------------------------------------------------------------
Analyzed: Les McCann / Les McCann Ltd. in New York
--------------------------------------------------------------------------------

DR         Peak         RMS     Duration Track
--------------------------------------------------------------------------------
DR12      -0.47 dB   -15.52 dB      7:47 01-Chip Monck (Live)
DR13      -0.01 dB   -16.84 dB      6:11 02-Fayth, You're... (Live)
DR12      -0.34 dB   -16.25 dB      7:42 03-Twist Chacha (Live)
DR12      -0.31 dB   -15.07 dB      9:26 04-A Little 3/4 for God and Co. (Live)
DR12      -0.45 dB   -16.52 dB      8:57 05-Maxie's Changes (Live)
--------------------------------------------------------------------------------

Number of tracks:  5
Official DR value: DR12

Samplerate:        48000 Hz
Channels:          2
Bits per sample:   24
Bitrate:           1290 kbps
Codec:             FLAC
================================================================================
14:31
560
Нет комментариев. Ваш будет первым!