Поиск

1962 Jimmy Woods - Awakening!! (2021) {Music Manager} [24-48]

1962 Jimmy Woods - Awakening!! (2021) {Music Manager} [24-48]
Стили:
Дата записи диска:
13 сентября 1961 - 19 февраля 1962
Место записи:
Contemporary Records Studio, Los Angeles, CA; Los Angeles, CA
Издатель (лейбл):
Носитель:
WEB
Формат:
PCM
Тип рипа:
tracks
Контейнер:
FLAC (*.flac)
Количество каналов:
2.0
Разрядность/ЧД:
24/48
Битрейт аудио:
lossless
Наличие сканов:
только обложка

01 - Awakening 04:08
02 - Circus 04:23
03 - Not Yet 07:57
04 - A New Twist 03:39
05 - Love for Sale 06:40
06 - Roma 05:13
07 - Little Jim 05:47
08 - Anticipation 04:01

Состав:
  • Jimmy Woods — alto saxophone
  • Martin Banks, Joe Gordon — trumpet (tracks 1, 2, 4, 5 & 8)
  • Amos Trice (tracks 1, 2, 4, 5 & 8), Dick Whittington (tracks 3, 6 & 7) — piano
  • Jimmy Bond (tracks 1, 2, 4, 5 & 8), Gary Peacock (tracks 3, 6 & 7) — bass
  • Milt Turner — drums
Лог проверки качества
foobar2000 1.4.6 / Dynamic Range Meter 1.1.1
log date: 2021-10-04 00:48:59
--------------------------------------------------------------------------------
Analyzed: Jimmy Woods / Awakening!!
--------------------------------------------------------------------------------
DR         Peak         RMS     Duration Track
--------------------------------------------------------------------------------
DR14       0.00 dB   -17.12 dB      4:08 01-Awakening
DR14      -0.42 dB   -17.18 dB      4:24 02-Circus
DR14      -0.04 dB   -17.56 dB      7:57 03-Not Yet
DR14      -0.47 dB   -17.53 dB      3:40 04-A New Twist
DR15      -0.04 dB   -18.02 dB      6:40 05-Love for Sale
DR13      -0.08 dB   -15.99 dB      5:14 06-Roma
DR14      -0.14 dB   -17.74 dB      5:48 07-Little Jim
DR13      -0.37 dB   -16.62 dB      4:02 08-Anticipation
--------------------------------------------------------------------------------
Number of tracks:  8
Official DR value: DR14
Samplerate:        48000 Hz
Channels:          2
Bits per sample:   24
Bitrate:           1369 kbps
Codec:             FLAC
================================================================================
Приватный:
Нет (DHT включён)
Размер:
412.21 Мб (432,237,076 байт) » файлов: 12
Участники:
0 раздают, 0 качают (0 участников всего)
Внешние участники:
2 раздают, 1 качают (3 участников всего) [ Обновить ]
11:51
397
Нет комментариев. Ваш будет первым!