Поиск

1962 Jimmy McGriff - I've Got a Woman (2021) {Music Manager} [24-48]

1962 Jimmy McGriff - I've Got a Woman (2021) {Music Manager} [24-48]
Стили:
Дата издания диска:
1 января 1962
Издатель (лейбл):
Битрейт аудио:
lossless

Состав:
  • Jimmy McGriff – organ
  • Morris Dow – guitar
  • Jackie Mills – drums
  • Irving Greenbaum     Engineer
  • Ira Howard     Liner Notes
Доп. инфо:

Первый альбом МакГриффа великолепен. Заглавная композиция вошла в двадцатку лучших в 1962 году. Также на этом же альбоме есть "M.G. Blues" и "All About My Girl". В этой сессии МакГриф, Ричард Исли на барабанах и Уолтер Миллер на гитаре. Hi-impact раннего МакГриффа по-прежнему остается лучшим, и это альбом, с которого все началось, на лейбле Sue. Три композиции доступны на коллекционном CD A Toast to Jimmy McGriff's Golden Classics.

Лог проверки качества
foobar2000 1.4.3 / Dynamic Range Meter 1.1.1
log date: 2022-04-03 11:23:06
--------------------------------------------------------------------------------
Analyzed: Jimmy McGriff / I've Got a Woman
--------------------------------------------------------------------------------
DR         Peak         RMS     Duration Track
--------------------------------------------------------------------------------
DR11      -0.02 dB   -12.01 dB      4:35 01-I've Got a Woman
DR11      -0.02 dB   -13.45 dB      3:56 02-On the Street Where You Live
DR11      -0.06 dB   -14.06 dB      2:22 03-Satin Doll
DR9       -0.07 dB   -12.14 dB      5:46 04-'Round Midnight
DR10      -0.06 dB   -11.61 dB      3:57 05-All About My Girl
DR11      -0.02 dB   -12.62 dB      4:59 06-M.G. Blues
DR11      -0.03 dB   -12.10 dB      2:21 07-That's the Way I Feel
DR10       0.00 dB   -12.89 dB      6:01 08-After Hours
DR9       -0.05 dB   -11.07 dB      3:25 09-Flying Home
DR9       -0.04 dB   -11.55 dB      5:07 10-Sermon
--------------------------------------------------------------------------------
Number of tracks:  10
Official DR value: DR10
Samplerate:        48000 Hz
Channels:          2
Bits per sample:   24
Bitrate:           1210 kbps
Codec:             FLAC
================================================================================
21:14
354
Нет комментариев. Ваш будет первым!