Поиск

1962 Ike Quebec - Soul Samba Bossa Nova (2009) {Blue Note} [DSD64]

1962 Ike Quebec - Soul Samba Bossa Nova (2009) {Blue Note} [DSD64]
Издатель (лейбл):
Треклист:

01. Loie (3:11)
02. Lloro Tu Despedida (3:05)
03. Goin' Home (5:43)
04. Me 'N You (6:02)
05. Liebestraum (3:44)
06. Shu Shu (3:32)
07. Blue Samba (5:23)
08. Favela (4:01)
09. Linda Flor (3:28)
10. Loie (Alternate Take) (3:36)
11. Shu Shu (Alternate Take) (3:21)
12. Favela (Alternate Take) (3:32)

Originally released in 1962 by Blue Note Records
Analogue Productions ‎– CBNJ 84114 SA
Mastered for SACD by Kevin Gray and Steve Hoffman at AcousTech Mastering, Camarillo, California

Доп. инфо:

Формат записи/Источник записи: [SACD-R][OF]
Наличие водяных знаков: Нет
Год издания/переиздания диска: 1962/2009
Жанр: Bossa Nova, Soul Jazz, Latin Jazz
Издатель (лейбл): Blue Note / Analogue Productions
Продолжительность: 00:48:36
Наличие сканов в содержимом раздачи: Да (сканы)

Контейнер: ISO (*.iso)
Тип рипа: image
Разрядность: 64(2,8 MHz/1 Bit)
Формат: DSD
Количество каналов: 2.0
Источник (релизер): grillbrill (PS³SACD)
https://store.acousticsounds.com/d/49161/Ike_Quebec-Soul_Samba_Bossa_Nova-Hybrid_Stereo_SACD

Лог проверки качества
foobar2000 1.3.17 / Dynamic Range Meter 1.1.1
log date: 2019-10-09 23:27:56

--------------------------------------------------------------------------------
Analyzed: Ike Quebec / Soul Samba Bossa Nova
--------------------------------------------------------------------------------

DR         Peak         RMS     Duration Track
--------------------------------------------------------------------------------
DR13     -10.97 dB   -28.33 dB      3:11 01-Loie
DR13      -7.41 dB   -25.74 dB      3:05 02-Lloro Tu Despedida
DR14      -7.90 dB   -26.92 dB      5:43 03-Goin' Home
DR13      -9.25 dB   -26.54 dB      6:02 04-Me 'N You
DR14     -10.62 dB   -27.53 dB      3:44 05-Liebestraum
DR12     -12.24 dB   -27.73 dB      3:32 06-Shu Shu
DR13      -7.87 dB   -26.50 dB      5:23 07-Blue Samba
DR13     -10.73 dB   -28.33 dB      4:01 08-Favela
DR11      -8.01 dB   -26.29 dB      3:28 09-Linda Flor
DR14      -8.15 dB   -26.24 dB      3:36 10-Loie (Alternate Take)
DR12      -8.23 dB   -26.07 dB      3:21 11-Shu Shu (Alternate Take)
DR12      -9.71 dB   -27.26 dB      3:32 12-Favela (Alternate Take)
--------------------------------------------------------------------------------

Number of tracks:  12
Official DR value: DR13

Samplerate:        2822400 Hz / PCM Samplerate: 44100 Hz
Channels:          2
Bits per sample:   1
Bitrate:           5645 kbps
Codec:             DSD64
================================================================================
Приватный:
Нет (DHT включён)
Размер:
1.97 Гб (2,117,550,247 байт) » файлов: 15
Участники:
0 раздают, 0 качают (0 участников всего)
Внешние участники:
14 раздают, 4 качают (18 участников всего) [ Обновить ]
Есть вопросы - пишите личное сообщение пользователю M0p94ok.
19:36
6
Нет комментариев. Ваш будет первым!