Поиск

1962 Herbie Mann - Do the Bossa Nova with Herbie Mann (2019) {RevOla} [24-44,1]

1962 Herbie Mann - Do the Bossa Nova with Herbie Mann (2019) {RevOla} [24-44,1]
Дата записи диска:
16-19 октября 1962
Дата издания диска:
март 1963
Дата переиздания диска:
2019
Треклист:

01 - Deve ser amor (It Must Be Love) 04:21
02 - Menina feia (Ugly Girl) 05:31
03 - Amor em paz (Love in Peace) 02:38
04 - Voce e eu (You and I) 04:23
05 - One Note Samba (Samba de uma nota so) 03:22
06 - Blues Walk 04:07
07 - Consolacao (Consolation) 04:26
08 - Bossa Velha (Old Bossa) 04:20

Доп. инфо:

Формат записи/Источник записи: [TR24][OF]
Издание: Remastered
Год издания/переиздания диска: 1962/2019
Издатель (лейбл): RevOla
Продолжительность: 00:33:08
Наличие сканов в содержимом раздачи: Нет

Контейнер: FLAC (*.flac)
Тип рипа: tracks
Разрядность: 24/44,1
Количество каналов: 2.0

Источник (релизер): Qobuz

Лог проверки качества
foobar2000 1.3.16 / Dynamic Range Meter 1.1.1
log date: 2019-01-12 17:39:21

--------------------------------------------------------------------------------
Analyzed: Herbie Mann / Do the Bossa Nova with Herbie Mann
--------------------------------------------------------------------------------

DR         Peak         RMS     Duration Track
--------------------------------------------------------------------------------
DR10      -1.64 dB   -14.76 dB      4:22 01-Deve ser amor (It Must Be Love) (Remastered)
DR12      -1.92 dB   -15.45 dB      5:32 02-Menina feia (Ugly Girl) (Remastered)
DR10      -2.89 dB   -15.96 dB      2:39 03-Amor em paz (Love in Peace) (Remastered)
DR11      -2.00 dB   -15.16 dB      4:24 04-Voce e eu (You and I) (Remastered)
DR11      -1.80 dB   -15.75 dB      3:22 05-One Note Samba (Samba de uma nota so) (Remastered)
DR12      -1.04 dB   -14.50 dB      4:08 06-Blues Walk (Remastered)
DR10      -2.74 dB   -17.31 dB      4:27 07-Consolacao (Consolation) (Remastered)
DR10      -0.99 dB   -14.11 dB      4:21 08-Bossa Velha (Old Bossa) (Remastered)
--------------------------------------------------------------------------------

Number of tracks:  8
Official DR value: DR11

Samplerate:        44100 Hz
Channels:          2
Bits per sample:   24
Bitrate:           1597 kbps
Codec:             FLAC
================================================================================
Приватный:
Нет (DHT включён)
Размер:
358.97 Мб (376,403,958 байт) » файлов: 12
Участники:
0 раздают, 0 качают (0 участников всего)
Внешние участники:
7 раздают, 2 качают (9 участников всего) [ Обновить ]
Есть вопросы - пишите личное сообщение пользователю M0p94ok.
12:53
16
Нет комментариев. Ваш будет первым!