Поиск

1962 Bill Evans & Jim Hall - Undercurrent (2002) {Blue Note 7243 5 38228 2 8}

1962 Bill Evans & Jim Hall - Undercurrent (2002) {Blue Note 7243 5 38228 2 8}
Издатель (лейбл):

Состав:
  • Michael Cuscuna Producer
  • Alan Douglas Design, Producer
  • Bill Evans Piano
  • Jim Hall Composer, Guitar
  • David Rosenthal Liner Notes
  • Bill Schwartan Engineer

Номер по каталогу: 7243 5 38228 2 8
Страна-производитель диска (релиза): Europe
Дата записи диска: 24 апреля (#2, 7, 8) и 14 мая 1962
Место записи: Sound Makers, New York, NY
Дата издания диска: начало августа 1962
Дата переиздания диска: 2002
Носитель: CD
Битрейт аудио: lossless
Аудиокодек: FLAC (*.flac)
Тип рипа: tracks+.cue
Время звучания: 52:21
Наличие сканов: да
Релизёр (источник): m@rtin

Треклист:
01. My Funny Valentine 5:20
02. I Hear A Rhapsody 4:36
03. Dream Gyspy 4:31
04. Romain 5:19
05. Skating In Central Park 5:19
06. Darn That Dream 5:06
07. Stairway To The Stars 5:38
08. I'm Getting Sentimental Over You 4:13
09. My Funny Valentine (Alternate Take) 6:53
10. Romain (Alternate Take) 5:24

 
Лог создания рипа
EAC extraction logfile from 7. October 2006, 13:28 for CD
Bill Evans Jim Hall / Undercurrent
Used drive  : HL-DT-STDVD-ROM GDR8162B   Adapter: 1  ID: 1
Read mode   : Secure with NO C2, accurate stream, disable cache
Read offset correction : 102
Overread into Lead-In and Lead-Out : No
Used output format : Internal WAV Routines
                     44.100 Hz; 16 Bit; Stereo
Other options      :
    Fill up missing offset samples with silence : Yes
    Delete leading and trailing silent blocks : No
    Installed external ASPI interface
Track  1
     Filename C:\Eac\Bill Evans,Jim Hall - Undercurrent (1962) [FLAC]\01 My Funny Valentine.wav
     Pre-gap length  0:00:02.00
     Peak level 84.5 %
     Track quality 100.0 %
     Test CRC 0194AFD7
     Copy CRC 0194AFD7
     Copy OK
Track  2
     Filename C:\Eac\Bill Evans,Jim Hall - Undercurrent (1962) [FLAC]\02 I Hear A Rhapsody.wav
     Pre-gap length  0:00:03.64
     Peak level 84.1 %
     Track quality 100.0 %
     Test CRC 31206BDA
     Copy CRC 31206BDA
     Copy OK
Track  3
     Filename C:\Eac\Bill Evans,Jim Hall - Undercurrent (1962) [FLAC]\03 Dream Gypsy.wav
     Pre-gap length  0:00:02.96
     Peak level 75.1 %
     Track quality 99.9 %
     Test CRC AD29EC37
     Copy CRC AD29EC37
     Copy OK
Track  4
     Filename C:\Eac\Bill Evans,Jim Hall - Undercurrent (1962) [FLAC]\04 Romain.wav
     Pre-gap length  0:00:02.80
     Peak level 84.3 %
     Track quality 99.9 %
     Test CRC B6732DC6
     Copy CRC B6732DC6
     Copy OK
Track  5
     Filename C:\Eac\Bill Evans,Jim Hall - Undercurrent (1962) [FLAC]\05 Skating In Central Park.wav
     Pre-gap length  0:00:03.64
     Peak level 92.5 %
     Track quality 100.0 %
     Test CRC D8C71EF6
     Copy CRC D8C71EF6
     Copy OK
Track  6
     Filename C:\Eac\Bill Evans,Jim Hall - Undercurrent (1962) [FLAC]\06 Darn That Dream.wav
     Pre-gap length  0:00:04.26
     Peak level 84.2 %
     Track quality 100.0 %
     Test CRC 84D42975
     Copy CRC 84D42975
     Copy OK
Track  7
     Filename C:\Eac\Bill Evans,Jim Hall - Undercurrent (1962) [FLAC]\07 Stairway To The Stars.wav
     Pre-gap length  0:00:02.90
     Peak level 70.2 %
     Track quality 99.9 %
     Test CRC 0B487941
     Copy CRC 0B487941
     Copy OK
Track  8
     Filename C:\Eac\Bill Evans,Jim Hall - Undercurrent (1962) [FLAC]\08 I'm Getting Sentimental Over You.wav
     Pre-gap length  0:00:03.09
     Peak level 84.7 %
     Track quality 100.0 %
     Test CRC F5721617
     Copy CRC F5721617
     Copy OK
Track  9
     Filename C:\Eac\Bill Evans,Jim Hall - Undercurrent (1962) [FLAC]\09 My Funny Valentine (Alternate Take).wav
     Pre-gap length  0:00:03.20
     Peak level 83.6 %
     Track quality 100.0 %
     Test CRC 2FFA870D
     Copy CRC 2FFA870D
     Copy OK
Track 10
     Filename C:\Eac\Bill Evans,Jim Hall - Undercurrent (1962) [FLAC]\10 Romain (Alternate Take).wav
     Pre-gap length  0:00:03.17
     Peak level 94.6 %
     Track quality 99.9 %
     Test CRC 6E70F63D
     Copy CRC 6E70F63D
     Copy OK
No errors occured
End of status report
 
Содержание индексной карты (.CUE)
REM GENRE Jazz
REM DATE 1962
REM DISCID 840C690A
REM COMMENT "ExactAudioCopy v0.95b2"
PERFORMER "Bill Evans Jim Hall"
TITLE "Undercurrent"
FILE "01 My Funny Valentine.wav" WAVE
  TRACK 01 AUDIO
    TITLE "My Funny Valentine"
    PERFORMER "Bill Evans Jim Hall"
    INDEX 01 00:00:00
  TRACK 02 AUDIO
    TITLE "I Hear A Rhapsody"
    PERFORMER "Bill Evans Jim Hall"
    INDEX 00 05:20:37
FILE "02 I Hear A Rhapsody.wav" WAVE
    INDEX 01 00:00:00
  TRACK 03 AUDIO
    TITLE "Dream Gypsy"
    PERFORMER "Bill Evans Jim Hall"
    INDEX 00 04:37:05
FILE "03 Dream Gypsy.wav" WAVE
    INDEX 01 00:00:00
  TRACK 04 AUDIO
    TITLE "Romain"
    PERFORMER "Bill Evans Jim Hall"
    INDEX 00 04:32:08
FILE "04 Romain.wav" WAVE
    INDEX 01 00:00:00
  TRACK 05 AUDIO
    TITLE "Skating In Central Park"
    PERFORMER "Bill Evans Jim Hall"
    INDEX 00 05:20:07
FILE "05 Skating In Central Park.wav" WAVE
    INDEX 01 00:00:00
  TRACK 06 AUDIO
    TITLE "Darn That Dream"
    PERFORMER "Bill Evans Jim Hall"
    INDEX 00 05:19:70
FILE "06 Darn That Dream.wav" WAVE
    INDEX 01 00:00:00
  TRACK 07 AUDIO
    TITLE "Stairway To The Stars"
    PERFORMER "Bill Evans Jim Hall"
    INDEX 00 05:06:57
FILE "07 Stairway To The Stars.wav" WAVE
    INDEX 01 00:00:00
  TRACK 08 AUDIO
    TITLE "I'm Getting Sentimental Over You"
    PERFORMER "Bill Evans Jim Hall"
    INDEX 00 05:38:20
FILE "08 I'm Getting Sentimental Over You.wav" WAVE
    INDEX 01 00:00:00
  TRACK 09 AUDIO
    TITLE "My Funny Valentine (Alternate Take)"
    PERFORMER "Bill Evans Jim Hall"
    INDEX 00 04:13:73
FILE "09 My Funny Valentine (Alternate Take).wav" WAVE
    INDEX 01 00:00:00
  TRACK 10 AUDIO
    TITLE "Romain (Alternate Take)"
    PERFORMER "Bill Evans Jim Hall"
    INDEX 00 06:54:12
FILE "10 Romain (Alternate Take).wav" WAVE
    INDEX 01 00:00:00
Скачивание доступно после регистрации!!
Приватный:
Нет (DHT включён)
Размер:
214.64 Мб (225,065,873 байт) » файлов: 18
Участники:
2 раздают, 0 качают (2 участников всего)
Внешние участники:
3 раздают, 1 качают (4 участников всего) [ Обновить ]
Скорость:
0/c 1.71 Кб/c
00:30
73
RSS
Нет комментариев. Ваш будет первым!