Поиск

1962 (1987) Herbie Hancock - Takin' Off {Blue Note B2-46506}

1962 (1987) Herbie Hancock - Takin' Off {Blue Note B2-46506}
Страна-производитель диска (релиза):
USA
Дата записи диска:
28 мая 1962
Дата издания диска:
1987
Издатель (лейбл):
Номер по каталогу:
B2-46506
Носитель:
CD
Битрейт аудио:
lossless
Аудиокодек:
APE (*.ape)
Тип рипа:
image+.cue
Время звучания:
57:34
Наличие сканов:
  • да
Релизёр (источник):
dulda

Треклист:

01. Watermelon Man [07:13.62]
02. Three Bags Full [05:30.65]
03. Empty Pockets [06:11.70]
04. The Maze [06:49.38]
05. Driftin' [07:00.62]
06. Alone And I [06:28.63]

Состав:
  • Bob Blumenthal    Liner Notes
  • Michael Cuscuna    Reissue Producer
  • Leonard Feather    Liner Notes
  • Dexter Gordon    Sax (Tenor)
  • Herbie Hancock    Composer, Piano
  • Billy Higgins    Drums
  • Freddie Hubbard    Flugelhorn, Trumpet
  • Alfred Lion    Audio Production, Producer
  • Rudy Van Gelder    Digital Remastering, Engineer, Remastering
  • Butch Warren    Bass, Guitar (Bass)

Записано в Van Gelder Studios, Englewood Cliffs, NJ

Лог создания рипа
Exact Audio Copy V0.99 prebeta 4 from 23. January 2008
Отчёт EAC об извлечении, выполненном 25. февраля 2008, 22:55
Herbie Hancock / Takin' Off
Дисковод: Optiarc DVD RW AD-7173A Adapter: 1 ID: 0
Режим чтения : Достоверность
Использование точного потока : Да
Отключение кэша аудио : Нет
Использование указателей C2 : Да
Коррекция смещения при чтении : 48
Способность читать области Lead-in и Lead-out : Нет
Заполнение пропущенных сэмплов тишиной : Да
Удаление блоков с тишиной в начале и конце : Нет
При вычислениях CRC использовались нулевые сэмплы : Нет
Интерфейс : Встроенный Win32-интерфейс для Win NT/2000
Выходной формат : Внутренние WAV-операции
Формат сэмплов : 44.100 Гц; 16 бит; стерео
TOC извлечённого CD
Трек | Старт | Длительность | Начальный сектор | Конечный сектор
---------------------------------------------------------------------
1 | 0:00.00 | 7:13.62 | 0 | 32536
2 | 7:13.62 | 5:30.65 | 32537 | 57351
3 | 12:44.52 | 6:11.70 | 57352 | 85246
4 | 18:56.47 | 6:49.38 | 85247 | 115959
5 | 25:46.10 | 7:00.62 | 115960 | 147521
6 | 32:46.72 | 6:28.63 | 147522 | 176684
Характеристики диапазона извлечения и сообщения об ошибках
Выбранный диапазон
Имя файла X:\Audio-образы дисков\Herbie Hancock - Takin' Off\Herbie Hancock - Takin' Off.wav
Пиковый уровень 99.6 %
Качество диапазона 100.0 %
CRC копии A14E9644
Копирование... OK
Ошибок не произошло
AccurateRip: сводка
Трек 1 точное извлечение (доверие 3) [7A5EA7FF]
Трек 2 точное извлечение (доверие 3) [F055D501]
Трек 3 точное извлечение (доверие 3) [190A56A6]
Трек 4 точное извлечение (доверие 3) [0C7018DD]
Трек 5 точное извлечение (доверие 3) [531A7274]
Трек 6 точное извлечение (доверие 3) [86474352]
Все треки извлечены точно
Конец отчёта
Приватный:
Нет (DHT включён)
Размер:
231.74 Мб (242,995,758 байт) » файлов: 6
Участники:
0 раздают, 0 качают (0 участников всего)
Внешние участники:
2 раздают, 1 качают (3 участников всего) [ Обновить ]
00:32
36
RSS
Нет комментариев. Ваш будет первым!