Поиск

1961 The Ink Spots - In Las Vegas {Life Series} [24-96]

1961 The Ink Spots - In Las Vegas {Life Series} [24-96]
Битрейт аудио:
lossless

This album is available on our DC++ hub: dc.pro-jazz.com
Этот альбом доступен на нашем DC++ хабе: dc.pro-jazz.com

Треклист:

◈ 01 - You Always Hurt the One You Love (00:03:01)
◈ 02 - Frankie and Johnny (00:03:00)
◈ 03 - Saints Come Marching In (00:05:06)
◈ 04 - Sweet Sixteen (00:03:00)
◈ 05 - You Tell Me Your Dreams (00:04:57)
◈ 06 - We Three (00:03:25)
◈ 07 - With My Eyes Wide Open (00:03:46)
◈ 08 - I'm Making Believe (00:03:00)
◈ 09 - Shine on Harvest Moon (00:03:13)
◈ 10 - I Love You Truly (00:03:18)

Доп. инфо:

• Формат записи | Источник записи: [TR24][OF]
• Наличие водяных знаков: Нет
• Год издания релиза: 1961
• Лейбл: Life Series
• Продолжительность: 00:35:51
• Источник: internet
• WEB релиз: ссылка
• Контейнер: FLAC (*.flac)
• Тип рипа: tracks
• Разрядность: 24/96
• Формат: PCM
• Количество каналов: 2.0
• Наличие сканов: front

Лог проверки качества
foobar2000 1.4.2 / Замер динамического диапазона (DR) 1.1.1
Дата отчёта:  2020-03-24 11:03:50

--------------------------------------------------------------------------------
Анализ:   The Ink Spots / In Las Vegas
--------------------------------------------------------------------------------

DR         Пики         RMS           Продолжительность трека
--------------------------------------------------------------------------------
DR12      -1.22 дБ   -15.80 дБ      3:02 01-You Always Hurt the One You Love
DR13      -1.21 дБ   -18.08 дБ      3:00 02-Frankie and Johnny
DR13      -1.22 дБ   -17.34 дБ      5:06 03-Saints Come Marching In
DR16      -1.33 дБ   -22.39 дБ      3:01 04-Sweet Sixteen
DR14      -1.22 дБ   -21.71 дБ      4:57 05-You Tell Me Your Dreams
DR14      -2.21 дБ   -22.30 дБ      3:25 06-We Three
DR15      -1.23 дБ   -22.19 дБ      3:47 07-With My Eyes Wide Open
DR14      -2.84 дБ   -20.64 дБ      3:01 08-I'm Making Believe
DR16      -2.98 дБ   -23.29 дБ      3:14 09-Shine on Harvest Moon
DR13      -2.11 дБ   -21.53 дБ      3:18 10-I Love You Truly
--------------------------------------------------------------------------------

Количество треков: 10
Реальные значения DR: DR14

Частота:   96000 Гц
Каналов:   2
Разрядность:   24
Битрейт:   2408 кбит/с
Кодек:   FLAC
================================================================================
06:49
662
Нет комментариев. Ваш будет первым!