Поиск

1961 Peggy Lee - If You Go (2021) {RevOla} [24-44.1]

1961 Peggy Lee - If You Go (2021) {RevOla} [24-44.1]
Стили:
Дата переиздания диска:
30 июля 2021
Издатель (лейбл):
Носитель:
WEB
Формат:
PCM
Тип рипа:
tracks
Контейнер:
FLAC (*.flac)
Количество каналов:
2.0
Разрядность/ЧД:
24/44,1
Битрейт аудио:
lossless
Наличие сканов:
только обложка

01 - The Man I Love 03:47
02 - Please Be Kind 04:14
03 - Happiness Is A Thing Called Joe 04:05
04 - Just One Way To Say I Love You 02:53
05 - That's All 02:55
06 - Something Wonderful 03:16
07 - He's My Guy 04:13
08 - Then I'll Be Tired Of You 02:31
09 - My Heart Stood Still 02:47
10 - If I Should Lose You 02:24
11 - There Is No Greater Love 03:40
12 - The Folks Who Live On The Hill 03:40
13 - As Time Goes By 02:52
14 - If You Go 02:43
15 - Oh Love Hast Thou Forsaken Me? 02:37
16 - Say It Isn't So 02:58
17 - I Wish I Didn't Love You So 02:49
18 - Maybe It's Because (I Love You Too Much) 02:04
19 - I'm Gonna Laugh You Out Of My Life 02:48
20 - I Get Along Without You Very Well 02:49
21 - (I Love Your) Gypsy Heart 02:30
22 - When I Was A Child 03:16
23 - Here's That Rainy Day 02:49
24 - Smile 02:21

Состав:
Лог проверки качества
foobar2000 1.4.6 / Dynamic Range Meter 1.1.1
log date: 2021-10-09 08:51:16
--------------------------------------------------------------------------------
Analyzed: Peggy Lee / If You Go
--------------------------------------------------------------------------------
DR         Peak         RMS     Duration Track
--------------------------------------------------------------------------------
DR9       -7.02 dB   -17.49 dB      3:47 01-The Man I Love (Remastered)
DR9       -6.27 dB   -17.28 dB      4:14 02-Please Be Kind (Remastered)
DR10      -4.98 dB   -19.51 dB      4:06 03-Happiness Is A Thing Called Joe (Remastered)
DR10      -6.16 dB   -18.34 dB      2:54 04-Just One Way To Say I Love You (Remastered)
DR10      -6.73 dB   -19.34 dB      2:56 05-That's All (Remastered)
DR9       -5.65 dB   -18.12 dB      3:16 06-Something Wonderful (Remastered)
DR9       -6.72 dB   -17.31 dB      4:14 07-He's My Guy (Remastered)
DR9       -5.82 dB   -18.30 dB      2:31 08-Then I'll Be Tired Of You (Remastered)
DR9       -4.74 dB   -18.74 dB      2:47 09-My Heart Stood Still (Remastered)
DR10      -5.73 dB   -18.83 dB      2:25 10-If I Should Lose You (Remastered)
DR9       -6.11 dB   -18.29 dB      3:40 11-There Is No Greater Love (Remastered)
DR10      -7.27 dB   -19.76 dB      3:41 12-The Folks Who Live On The Hill (Remastered)
DR12      -3.83 dB   -18.81 dB      2:53 13-As Time Goes By (Remastered)
DR12      -3.24 dB   -18.95 dB      2:43 14-If You Go (Remastered)
DR13      -2.52 dB   -19.25 dB      2:37 15-Oh Love Hast Thou Forsaken Me? (Remastered)
DR11      -2.61 dB   -19.25 dB      2:58 16-Say It Isn't So (Remastered)
DR12      -5.51 dB   -20.39 dB      2:49 17-I Wish I Didn't Love You So (Remastered)
DR12      -2.61 dB   -19.45 dB      2:04 18-Maybe It's Because (I Love You Too Much) (Remastered)
DR13      -2.01 dB   -19.03 dB      2:49 19-I'm Gonna Laugh You Out Of My Life (Remastered)
DR12      -4.90 dB   -19.31 dB      2:50 20-I Get Along Without You Very Well (Remastered)
DR11      -5.00 dB   -19.16 dB      2:30 21-(I Love Your) Gypsy Heart (Remastered)
DR12      -3.67 dB   -20.15 dB      3:16 22-When I Was A Child (Remastered)
DR10      -4.94 dB   -20.35 dB      2:50 23-Here's That Rainy Day (Remastered)
DR11      -4.41 dB   -19.20 dB      2:22 24-Smile (Remastered)
--------------------------------------------------------------------------------
Number of tracks:  24
Official DR value: DR11
Samplerate:        44100 Hz
Channels:          2
Bits per sample:   24
Bitrate:           1325 kbps
Codec:             FLAC
================================================================================
Скачивание доступно после регистрации!!
Приватный:
Нет (DHT включён)
Размер:
643.18 Мб (674,420,680 байт) » файлов: 28
Участники:
28 раздают, 0 качают (28 участников всего)
Внешние участники:
10 раздают, 3 качают (13 участников всего) [ Обновить ]
23:18
291
Нет комментариев. Ваш будет первым!