Поиск

1961 Mavis Rivers - Places You Go (2019) {Nagel Heyer} [24-44,1]

1961 Mavis Rivers - Places You Go (2019) {Nagel Heyer} [24-44,1]
Стили:
Издатель (лейбл):
Битрейт аудио:
lossless

Треклист:

01 - Day in, Day Out 02:22
02 - It Don't Mean a Thing (If It Ain't Got That Swing) 02:15
03 - There, I've Said It Again 03:20
04 - Love You Madly 02:35
05 - There's No You 04:07
06 - Hurry Home 02:20
07 - Candy 03:14
08 - People Will Say We're in Love 01:56
09 - A Sleepin' Bee 03:40
10 - Saturday Night (Is the Loneliest Night in the Week) 02:32
11 - Massachusetts 02:52
12 - Things to Do Today 03:05
13 - You'd Be so Nice to Come Home to 02:25
14 - Another Human Being of the Opposite Sex 03:21
15 - Cocoanuts 02:58
16 - Life Is so Peculiar 02:32
17 - Love and the Weather 02:39
18 - All My Tomorrows 03:02
19 - Doctor, Lawyer, Indian Chief 03:00
20 - Honeysuckle Rose 03:11
21 - This Could Be It 03:02
22 - Can I Forget You 02:49
23 - On Second Thought 03:09

Доп. инфо:

Формат записи/Источник записи: [TR24][OF]
Издание: Remastered
Год издания/переиздания диска: 1961/2019
Продолжительность: 01:06:26
Наличие сканов в содержимом раздачи: Нет

Контейнер: FLAC (*.flac)
Тип рипа: tracks
Разрядность: 24/44,1
Количество каналов: 2.0

Источник (релизер): Qobuz

Лог проверки качества
foobar2000 1.4.3 / Dynamic Range Meter 1.1.1
log date: 2020-11-01 07:03:13

--------------------------------------------------------------------------------
Analyzed: Mavis Rivers / Places You Go
--------------------------------------------------------------------------------

DR         Peak         RMS     Duration Track
--------------------------------------------------------------------------------
DR8       -2.85 dB   -12.22 dB      2:23 01-Day in, Day Out
DR8       -2.85 dB   -12.19 dB      2:15 02-It Don't Mean a Thing (If It Ain't Got That Swing)
DR8       -2.85 dB   -12.48 dB      3:20 03-There, I've Said It Again
DR8       -2.85 dB   -12.45 dB      2:35 04-Love You Madly
DR8       -2.86 dB   -13.67 dB      4:07 05-There's No You
DR9       -2.85 dB   -12.99 dB      2:21 06-Hurry Home
DR8       -2.85 dB   -12.89 dB      3:14 07-Candy
DR8       -2.85 dB   -12.19 dB      1:57 08-People Will Say We're in Love
DR8       -2.85 dB   -13.07 dB      3:40 09-A Sleepin' Bee
DR8       -2.85 dB   -12.91 dB      2:33 10-Saturday Night (Is the Loneliest Night in the Week)
DR8       -2.85 dB   -12.72 dB      2:53 11-Massachusetts
DR7       -2.85 dB   -11.31 dB      3:06 12-Things to Do Today
DR8       -2.86 dB   -12.48 dB      2:25 13-You'd Be so Nice to Come Home to
DR8       -2.85 dB   -11.94 dB      3:21 14-Another Human Being of the Opposite Sex
DR8       -2.85 dB   -12.32 dB      2:59 15-Cocoanuts
DR8       -2.85 dB   -12.53 dB      2:32 16-Life Is so Peculiar
DR8       -2.85 dB   -12.83 dB      2:40 17-Love and the Weather
DR8       -2.85 dB   -13.93 dB      3:03 18-All My Tomorrows
DR8       -2.85 dB   -12.43 dB      3:01 19-Doctor, Lawyer, Indian Chief
DR8       -2.85 dB   -13.53 dB      3:11 20-Honeysuckle Rose
DR8       -2.85 dB   -12.79 dB      3:02 21-This Could Be It
DR8       -2.85 dB   -12.60 dB      2:50 22-Can I Forget You
DR8       -2.85 dB   -11.83 dB      3:10 23-On Second Thought
--------------------------------------------------------------------------------

Number of tracks:  23
Official DR value: DR8

Samplerate:        44100 Hz
Channels:          2
Bits per sample:   24
Bitrate:           1691 kbps
Codec:             FLAC
================================================================================
Приватный:
Нет (DHT включён)
Размер:
768.37 Мб (805,696,554 байт) » файлов: 29
Участники:
0 раздают, 0 качают (0 участников всего)
Внешние участники:
3 раздают, 1 качают (4 участников всего) [ Обновить ]
No seeders - write personal message to M0p94ok. Нет сидеров - пишите в личку M0p94ok.
12:32
324
Нет комментариев. Ваш будет первым!