Вы используете незарегистрированную версию компонента "Вкладки"!

Поиск

1961 Don Ellis - How Time Passes (2006) {Candid CCD 79004} [CD]

1961 Don Ellis - How Time Passes (2006) {Candid CCD 79004} [CD]
Стили:
Дата записи диска:
4 октября - 5 октября 1960
Место записи:
Nola Penthouse Sound Studios, New York City, NY, USA
Издатель (лейбл):
Номер по каталогу:
CCD 79004
Носитель:
CD
Тип рипа:
tracks+.cue
Аудиокодек:
FLAC (*.flac)
Битрейт аудио:
lossless
Время звучания:
00:45:16
Наличие сканов:
да
Лог создания рипа
Exact Audio Copy V0.99 prebeta 5 from 4. May 2009

EAC extraction logfile from 4. October 2010, 14:33

Don Ellis / How Time Passes

Used drive  : TSSTcorpCD/DVDW TS-H552L   Adapter: 3  ID: 0

Read mode               : Secure
Utilize accurate stream : Yes
Defeat audio cache      : Yes
Make use of C2 pointers : No

Read offset correction                      : 6
Overread into Lead-In and Lead-Out          : No
Fill up missing offset samples with silence : Yes
Delete leading and trailing silent blocks   : No
Null samples used in CRC calculations       : Yes
Used interface                              : Native Win32 interface for Win NT & 2000
Gap handling                                : Appended to previous track

Used output format              : User Defined Encoder
Selected bitrate                : 1024 kBit/s
Quality                         : High
Add ID3 tag                     : No
Command line compressor         : C:\Program Files\FLAC\flac.exe
Additional command line options : -6 -V -T "ARTIST=%a" -T "TITLE=%t" -T "ALBUM=%g" -T "DATE=%y" -T "TRACKNUMBER=%n" -T "GENRE=%m" -T "COMMENT=EAC FLAC -6" %s


TOC of the extracted CD

     Track |   Start  |  Length  | Start sector | End sector 
    ---------------------------------------------------------
        1  |  0:00.00 |  6:30.00 |         0    |    29249   
        2  |  6:30.00 |  4:38.00 |     29250    |    50099   
        3  | 11:08.00 |  4:17.00 |     50100    |    69374   
        4  | 15:25.00 |  8:15.00 |     69375    |   106499   
        5  | 23:40.00 | 22:18.50 |    106500    |   206899   


Track  1

     Filename C:\Don Ellis - How Time Passes (1961) {2006 Candid Remaster}\01 - How Time Passes.wav

     Pre-gap length  0:00:02.00

     Peak level 98.2 %
     Track quality 100.0 %
     Test CRC A9036066
     Copy CRC A9036066
     Track not present in AccurateRip database
     Copy OK

Track  2

     Filename C:\Don Ellis - How Time Passes (1961) {2006 Candid Remaster}\02 - Sallie.wav

     Pre-gap length  0:00:04.25

     Peak level 100.0 %
     Track quality 100.0 %
     Test CRC 8D67C407
     Copy CRC 8D67C407
     Track not present in AccurateRip database
     Copy OK

Track  3

     Filename C:\Don Ellis - How Time Passes (1961) {2006 Candid Remaster}\03 - A Simplex One.wav

     Pre-gap length  0:00:02.00

     Peak level 96.4 %
     Track quality 99.9 %
     Test CRC 79C0D778
     Copy CRC 79C0D778
     Track not present in AccurateRip database
     Copy OK

Track  4

     Filename C:\Don Ellis - How Time Passes (1961) {2006 Candid Remaster}\04 - Waste.wav

     Pre-gap length  0:00:02.00

     Peak level 82.0 %
     Track quality 100.0 %
     Test CRC E62002A9
     Copy CRC E62002A9
     Track not present in AccurateRip database
     Copy OK

Track  5

     Filename C:\Don Ellis - How Time Passes (1961) {2006 Candid Remaster}\05 - Improvisational Suite #1.wav

     Pre-gap length  0:00:04.25

     Peak level 100.0 %
     Track quality 100.0 %
     Test CRC 37D73A9A
     Copy CRC 37D73A9A
     Track not present in AccurateRip database
     Copy OK


None of the tracks are present in the AccurateRip database

No errors occurred

End of status report
Any questions - support@pro-jazz.com. Есть вопросы - support@pro-jazz.com
16:17
56
16:18