Поиск

1961 (1995) Ike Quebec - Heavy Soul {Blue Note CDP 7243 8 32090 2 6}

1961 (1995) Ike Quebec - Heavy Soul {Blue Note CDP 7243 8 32090 2 6}
Страна-производитель диска (релиза):
USA
Дата записи диска:
26 ноября 1961
Дата издания диска:
1995
Издатель (лейбл):
Номер по каталогу:
CDP 7243 8 32090 2 6
Носитель:
CD
Битрейт аудио:
lossless
Аудиокодек:
APE (*.ape)
Тип рипа:
image+.cue
Время звучания:
48:25
Наличие сканов:
  • да
Релизёр (источник):
dulda
Лог создания рипа
Exact Audio Copy V0.99 prebeta 4 from 23. January 2008

Отчёт EAC об извлечении, выполненном 25. февраля 2008, 11:42

Ike Quebec / Heavy Soul

Дисковод: Optiarc DVD RW AD-7173A Adapter: 1 ID: 0

Режим чтения : Достоверность
Использование точного потока : Да
Отключение кэша аудио : Да
Использование указателей C2 : Нет

Коррекция смещения при чтении : 48
Способность читать области Lead-in и Lead-out : Нет
Заполнение пропущенных сэмплов тишиной : Да
Удаление блоков с тишиной в начале и конце : Нет
При вычислениях CRC использовались нулевые сэмплы : Нет
Интерфейс : Встроенный Win32-интерфейс для Win NT/2000

Выходной формат : Внутренние WAV-операции
Формат сэмплов : 44.100 Гц; 16 бит; стерео

TOC извлечённого CD

Трек | Старт | Длительность | Начальный сектор | Конечный сектор
---------------------------------------------------------------------
1 | 0:00.00 | 5:41.02 | 0 | 25576
2 | 5:41.02 | 5:52.28 | 25577 | 52004
3 | 11:33.30 | 4:32.57 | 52005 | 72461
4 | 16:06.12 | 5:27.30 | 72462 | 97016
5 | 21:33.42 | 6:32.50 | 97017 | 126466
6 | 28:06.17 | 6:54.25 | 126467 | 157541
7 | 35:00.42 | 5:22.35 | 157542 | 181726
8 | 40:23.02 | 2:41.45 | 181727 | 193846
9 | 43:04.47 | 5:52.45 | 193847 | 220291

Характеристики диапазона извлечения и сообщения об ошибках

Выбранный диапазон

Имя файла X:\Audio-образы дисков\Ike_Quebec-Heavy_Soul\Ike Quebec - Heavy Soul.wav

Пиковый уровень 95.8 %
Качество диапазона 100.0 %
CRC копии 2BF0D51F
Копирование... OK

Ошибок не произошло

AccurateRip: сводка

Трек 1 точное извлечение (доверие 1) [9D1A3787]
Трек 2 точное извлечение (доверие 1) [F22EFF9C]
Трек 3 точное извлечение (доверие 1) [9A4882A0]
Трек 4 точное извлечение (доверие 1) [07C89C3B]
Трек 5 точное извлечение (доверие 1) [65C03061]
Трек 6 точное извлечение (доверие 1) [1AB216DF]
Трек 7 точное извлечение (доверие 1) [0FD8EB5F]
Трек 8 точное извлечение (доверие 1) [3FA7195E]
Трек 9 точное извлечение (доверие 1) [C47D1EC6]

Все треки извлечены точно

Конец отчёта
Приватный:
Нет (DHT включён)
Размер:
240.26 Мб (251,926,382 байт) » файлов: 11
Участники:
0 раздают, 0 качают (0 участников всего)
Внешние участники:
2 раздают, 1 качают (3 участников всего) [ Обновить ]
14:04
97
RSS
Нет комментариев. Ваш будет первым!