Поиск

1961 (1993) Max Roach - Percussion Bitter Sweet {GRP / Impulse GRD-122}

1961 (1993) Max Roach - Percussion Bitter Sweet {GRP / Impulse GRD-122}
Страна-производитель диска (релиза):
USA
Дата записи диска:
1-9 августа 1961
Дата издания диска:
1961
Дата переиздания диска:
16 февраля 1993
Номер по каталогу:
GRD-122
Носитель:
CD
Аудиокодек:
FLAC (*.flac)
Тип рипа:
tracks+.cue
Битрейт аудио:
1
Время звучания:
40:55
Релизёр (источник):
AlexMachen
Треклист:

01. Garvey's Ghost (7:54)
02. Mama (4:51)
03. Tender Warriors (6:54)
04. Praise for a Martyr (7:10)
05. Mendacity (8:55)
06. Man From South Africa (5:13)

Лог создания рипа
EAC extraction logfile from 8. September 2006, 0:07 for CD
Max Roach / Percussion Bitter Sweet

Used drive  : LITE-ON CD-ROM LTN-527T   Adapter: 1  ID: 1
Read mode   : Secure with NO C2, accurate stream, disable cache
Read offset correction : 12
Overread into Lead-In and Lead-Out : No

Used output format : C:\Program Files\FLAC\flac.exe   (User Defined Encoder)
                     320 kBit/s
                     Additional command line options : -V -8 -T "artist=%a" -T "title=%t" -T "album=%g" -T "date=%y" -T "tracknumber=%n" -T "genre=%m" %s

Other options      : 
    Fill up missing offset samples with silence : Yes
    Delete leading and trailing silent blocks : No
    Installed external ASPI interface


Track  1
     Filename F:\Downloads\Max Roach - Percussion Bitter Sweet\01 - Garvey's Ghost.wav

     Pre-gap length  0:00:02.00

     Peak level 97.8 %
     Track quality 100.0 %
     Test CRC 50FB25C2
     Copy CRC 50FB25C2
     Copy OK

Track  2
     Filename F:\Downloads\Max Roach - Percussion Bitter Sweet\02 - Mama.wav

     Pre-gap length  0:00:01.48

     Peak level 100.0 %
     Track quality 99.9 %
     Test CRC E810620F
     Copy CRC E810620F
     Copy OK

Track  3
     Filename F:\Downloads\Max Roach - Percussion Bitter Sweet\03 - Tender Warriors.wav

     Pre-gap length  0:00:01.57

     Peak level 99.4 %
     Track quality 100.0 %
     Test CRC 60E1296D
     Copy CRC 60E1296D
     Copy OK

Track  4
     Filename F:\Downloads\Max Roach - Percussion Bitter Sweet\04 - Praise for a Martyr.wav

     Pre-gap length  0:00:01.40

     Peak level 86.0 %
     Track quality 100.0 %
     Test CRC 5B4E0DAC
     Copy CRC 5B4E0DAC
     Copy OK

Track  5
     Filename F:\Downloads\Max Roach - Percussion Bitter Sweet\05 - Mendacity.wav

     Pre-gap length  0:00:01.53

     Peak level 100.0 %
     Track quality 100.0 %
     Test CRC F008FF1B
     Copy CRC F008FF1B
     Copy OK

Track  6
     Filename F:\Downloads\Max Roach - Percussion Bitter Sweet\06 - Man From South Africa.wav

     Pre-gap length  0:00:01.53

     Peak level 75.8 %
     Track quality 100.0 %
     Test CRC E08F0F3A
     Copy CRC E08F0F3A
     Copy OK

No errors occured


End of status report
Содержание индексной карты (.CUE)
REM GENRE Jazz
REM DATE 1961
REM DISCID 4A099706
REM COMMENT "ExactAudioCopy v0.95b4"
PERFORMER "Max Roach"
TITLE "Percussion Bitter Sweet"
FILE "01 - Garvey's Ghost.wav" WAVE
  TRACK 01 AUDIO
    TITLE "Garvey's Ghost"
    PERFORMER "Max Roach"
    ISRC USMC16153572
    INDEX 01 00:00:00
  TRACK 02 AUDIO
    TITLE "Mama"
    PERFORMER "Max Roach"
    ISRC USMC16153573
    INDEX 00 07:51:72
FILE "02 - Mama.wav" WAVE
    INDEX 01 00:00:00
  TRACK 03 AUDIO
    TITLE "Tender Warriors"
    PERFORMER "Max Roach"
    ISRC USMC16153574
    INDEX 00 04:48:60
FILE "03 - Tender Warriors.wav" WAVE
    INDEX 01 00:00:00
  TRACK 04 AUDIO
    TITLE "Praise for a Martyr"
    PERFORMER "Max Roach"
    ISRC USMC16153575
    INDEX 00 06:52:00
FILE "04 - Praise for a Martyr.wav" WAVE
    INDEX 01 00:00:00
  TRACK 05 AUDIO
    TITLE "Mendacity"
    PERFORMER "Max Roach"
    ISRC USMC16153576
    INDEX 00 07:08:45
FILE "05 - Mendacity.wav" WAVE
    INDEX 01 00:00:00
  TRACK 06 AUDIO
    TITLE "Man From South Africa"
    PERFORMER "Max Roach"
    ISRC USMC16153504
    INDEX 00 08:53:07
FILE "06 - Man From South Africa.wav" WAVE
    INDEX 01 00:00:00
Приватный:
Нет (DHT включён)
Размер:
277.06 Мб (290,513,729 байт) » файлов: 23
Участники:
0 раздают, 0 качают (0 участников всего)
Внешние участники:
3 раздают, 1 качают (4 участников всего) [ Обновить ]
05:53
182
Нет комментариев. Ваш будет первым!