Вы используете незарегистрированную версию компонента "Вкладки"!

Поиск

1960 Rosemary Clooney - Clap Hands Here Comes Rosie! (2016) {RevOla} [24-44.1]

1960 Rosemary Clooney - Clap Hands Here Comes Rosie! (2016) {RevOla} [24-44.1]
Стили:
Издатель (лейбл):
Битрейт аудио:
lossless
Доп. инфо:

Формат записи/Источник записи: [TR24][OF]
Издание: Remastered
Год издания/переиздания диска: 1960/2016
Продолжительность: 00:31:30
Наличие сканов в содержимом раздачи: Нет
Контейнер: FLAC (*.flac)
Тип рипа: tracks
Разрядность: 24/44,1
Количество каналов: 2.0

Источник (релизер): Qobuz

Лог проверки качества
foobar2000 1.4.3 / Dynamic Range Meter 1.1.1
log date: 2021-05-23 16:46:35

--------------------------------------------------------------------------------
Analyzed: Rosemary Clooney / Clap Hands Here Comes Rosie!
--------------------------------------------------------------------------------

DR         Peak         RMS     Duration Track
--------------------------------------------------------------------------------
DR12      -5.67 dB   -19.64 dB      2:23 01-Something's Gotta Give (Rosemary Clooney)
DR12      -5.30 dB   -19.93 dB      2:34 02-Give Me The Simple Life (Rosemary Clooney)
DR11      -6.42 dB   -20.74 dB      2:40 03-Bye, Bye, Blackbird (Rosemary Clooney)
DR12      -5.32 dB   -20.59 dB      2:22 04-Aren’t You Glad You're You (Rosemary Clooney)
DR10      -6.63 dB   -20.59 dB      2:44 05-You Got (Rosemary Clooney)
DR11      -5.56 dB   -20.34 dB      2:12 06-Too Mervellous For Words (Rosemary Clooney)
DR10      -5.73 dB   -19.20 dB      2:09 07-Oh! What A Beautiful Morning (Rosemary Clooney)
DR11      -5.87 dB   -20.11 dB      2:30 08-Hooray For Love (Rosemary Clooney)
DR10      -7.31 dB   -21.37 dB      3:36 09-Mean To Me (Rosemary Clooney)
DR10      -5.31 dB   -18.97 dB      2:30 10-Many A Wonderful Moment (Rosemary Clooney)
DR11      -7.42 dB   -20.94 dB      2:28 11-It Could Happen To You (Rosemary Clooney)
DR12      -5.23 dB   -21.69 dB      3:22 12-Makin' Whoopee (Rosemary Clooney)
--------------------------------------------------------------------------------

Number of tracks:  12
Official DR value: DR11

Samplerate:        44100 Hz
Channels:          2
Bits per sample:   24
Bitrate:           1409 kbps
Codec:             FLAC
================================================================================
Any questions - support@pro-jazz.com. Есть вопросы - support@pro-jazz.com
19:35
28
Нет комментариев. Ваш будет первым!