Вы используете незарегистрированную версию компонента "Вкладки"!

Поиск

1960 Nat Adderley - Work Song (2004) {Riverside, Fantasy} [DSD 64]

1960 Nat Adderley - Work Song (2004) {Riverside, Fantasy} [DSD 64]
Стили:
Издатель (лейбл):
Доп. инфо:

Формат записи/Источник записи: [SACD-R][OF]
Наличие водяных знаков: Нет
Год издания/переиздания диска: 1960/2004
Продолжительность: 00:38:45
Наличие сканов в содержимом раздачи: Только обложка альбома
Контейнер: ISO (*.iso)
Тип рипа: image
Разрядность: 64(2,8 MHz/1 Bit)
Формат: DSD
Количество каналов: 2.0
Iso was made with sacd-ripper for PS3, from the magical Mr_Wicked.
Источник (релизер): jazzyman (PS³SACD)
http://www.sa-cd.net/showtitle/2549

Лог проверки качества
foobar2000 1.3.13 / Замер динамического диапазона (DR) 1.1.1
Дата отчёта:  2018-06-25 13:35:38
--------------------------------------------------------------------------------
Анализ:   Nat Adderley / Work Song
--------------------------------------------------------------------------------
DR         Пики         RMS           Продолжительность трека
--------------------------------------------------------------------------------
DR13      -3.73 дБ   -20.81 дБ      4:13 01-Work Song
DR13      -4.40 дБ   -19.73 дБ      3:50 02-Pretty Memory
DR12      -5.54 дБ   -20.99 дБ      2:54 03-I've Got a Crush on You
DR14      -4.83 дБ   -21.23 дБ      5:00 04-Mean To Me
DR14      -2.98 дБ   -20.27 дБ      4:51 05-Fallout
DR13      -2.68 дБ   -18.87 дБ      4:26 06-Sack of Woe
DR14      -3.60 дБ   -20.29 дБ      6:24 07-My Heart Stood Still
DR12      -4.14 дБ   -20.61 дБ      3:47 08-Violets For Your Furs
DR14      -3.15 дБ   -19.94 дБ      3:20 09-Scrambled Eggs
--------------------------------------------------------------------------------
Количество треков: 9
Реальные значения DR: DR13
Частота:   2822400 Гц / Частота PCM: 352800 Гц
Каналов:   2
Разрядность:   24
Битрейт:   5645 кбит/с
Кодек:   DSD64
================================================================================
Any questions - support@pro-jazz.com. Есть вопросы - support@pro-jazz.com
10:58
590
Нет комментариев. Ваш будет первым!