Поиск

1960 Nancy Wilson - Like, In Love! (2021) {RevOla} [24-44.1]

1960 Nancy Wilson - Like, In Love! (2021) {RevOla} [24-44.1]
Стили:
Издатель (лейбл):
Носитель:
WEB
Формат:
PCM
Тип рипа:
tracks
Контейнер:
FLAC (*.flac)
Количество каналов:
2.0
Разрядность/ЧД:
24/44,1
Битрейт аудио:
lossless
Время звучания:
00:55:28
Наличие сканов:
только обложка

Треклист:

01 - On The Street Where You Live 01:42
02 - Night Mist 02:34
03 - You Leave Me Breathless 02:27
04 - The More I See You 02:11
05 - I Want To Be Loved 02:19
06 - Almost Like Being In Love 01:46
07 - People Will Say We're In Love 01:57
08 - Passion Flower 02:23
09 - Sometimes I'm Happy 01:46
10 - In Other Words 02:52
11 - All Of You 01:49
12 - If It's The Last Thing I Do 02:07
13 - Teach Me Tonight 02:49
14 - This Time The Dream's On Me 02:18
15 - I'm Gonna Laugh You Right Out Of My Life 02:37
16 - I Wish You Love 01:59
17 - Guess Who I Saw Today? 03:22
18 - I'm Gonna Laugh You Right Out Of My Life 01:47
19 - What A Little Moonlight Can Do 02:26
20 - The Great City 02:43
21 - He's My Guy 02:27
22 - Something Happens To Me 01:58
23 - Call It Stormy Monday 02:25
24 - Something Wonderful Happens 02:44

Состав:

Like in Love:

  • Nancy Wilson – vocals
  • Willie Smith –alto saxophone
  • Benny Carter – alto saxophone (1–2, 4–6, 8–9, 11–12)
  • Jules Jacob – saxophone (3–5, 7, 10–12)
  • Charles Gentry – saxophone (3–5, 7, 10–12)
  • William Ulyate – saxophone (1–2, 4–6, 8–9, 11–12)
  • Jerome Kasper – saxophone (1–2, 6, 8–9)
  • Fred Falensby – saxophone (1–2, 6, 8–9)
  • Milt Bernhart – trombone (1–2, 4–6, 8–9, 11–12)
  • Tommy Pederson — trombone (3, 7, 10)
  • Milt Raskin – piano
  • Jack Marshall – guitar (1–3, 6–10)
  • Bob Gibbons – guitar (4–5, 11–12)
  • Myer Rubin – double bass (1–2, 4-6, 8–9, 11–12)
  • Joe Mondragon – double bass (3, 7, 10)
  • Irving Cottler – drums (1–3, 6–10)
  • Stan Levey – drums (4–5, 11–12)
  • Emil Richards – drums (3, 7, 10)
  • Billy May – arranger, conductor

Something Wonderful:

  • Nancy Wilson – vocals
  • Billy May – arranger, conductor
  • Pete Candoli – trumpet
  • Frank Beach – trumpet
  • Conrad Gozzo – trumpet
  • Mannie Klein – trumpet
  • George Roberts – trombone
  • Si Zentner – trombone
  • Murray McEachern – trombone
  • Lloyd Ulyate – trombone
  • Ben Webster – tenor saxophone
  • Justin Gordon – flute
  • Emil Richards – vibraphone
  • Milt Raskin – piano & celeste
  • Jack Marshall – guitar
  • Joe Comfort – bass
  • Shelly Manne – drums
Доп. инфо:

Like in Love Review by Nick Dedina

В 1950-х и начале 60-х годов на лейбле Capitol Records было самое место для джаз-поп вокалистов, и этим успешным дебютом Нэнси Уилсон доказала, что она готова записываться вместе с такими коллегами по лейблу, как Фрэнк Синатра, Нат "Кинг" Коул и Пегги Ли. На момент первой записи Уилсон было всего 22 года, но ее вокальный стиль Сары Вон (Sarah Vaughan-meets-Dinah Washington) уже прочно укоренился и прекрасно сочетался с джазовыми чартами звездного аранжировщика Билли Мэя (Billy May). Многие из бэкграундов Мэя, особенно баллады, такие как "Fly Me to the Moon", имеют тонкий блеск Дюка Эллингтона и Билли Стрэйхорна. Звездный альт-саксофонист Дюка Вилли Смит не только исполнил несколько отличных соло на этой пластинке, но и Уилсон получил возможность спеть возвышенную песню Стрэйхорна "Passion Flower". Хотя этот солидный релиз имеет шикарное звучание Capitol House, на самом деле именно две джазовые записи Уилсон в малых группах с Джорджем Ширингом и Кэннонболом Аддерли открыли ее широкой публике и помогли ей стать самым продаваемым артистом лейбла в начале 60-х годов. Как бы хороши ни были эти занятия в малых группах, Уилсон, к счастью, продолжила работать с талантливым Билли Мэем, и их следующая совместная запись, альбом 1960 года "Something Wonderful", каким-то образом смогла улучшить этот победный дебют и остается одним из лучших ее альбомов всех времен.

Something Wonderful Review by Nick Dedina

Этот прекрасный альбом, к сожалению, затерялся в шумихе, когда он был выпущен в том же году, что и другой альбом Нэнси Уилсон, The Swingin's Mutual!, ее очень успешное сотрудничество с квинтетом Джорджа Ширинга. Это очень жаль, потому что Something Wonderful - один из лучших альбомов Уилсон и самый вкусный ее альбом с известным аранжировщиком биг-бэндов Билли Мэем. В то время Уилсон было всего 23 года, но ее властный джазовый голос, пропитанный блюзом и соулом, был полностью сформирован к моменту записи, и, в отличие от многих молодых певиц, она уже была настроена на передачу текста, а не просто на демонстрацию своих вокальных способностей. Это прекрасно показано в повествовательной песне "Угадай, кого я видела сегодня", которая по праву стала одной из фирменных мелодий Уилсона. Со своей стороны, Мэй сохраняет акцент на свингующем джазе, но избегает тяжелых духовых и дикой перкуссии, которыми он прославился. Вместо этого он предпочитает более тонкое звучание. Мэй даже добавил в альбом пару джазовых и блюзовых номеров в составе небольших групп и позволил некоторым превосходным джазовым музыкантам (включая Бена Вебстера, легендарного тенор-саксофониста) блеснуть в сольном свете. Something Wonderful остается одной из самых джазово-ориентированных сессий Нэнси Уилсон, и это долгожданное дополнение к ее каталогу.

Лог проверки качества
foobar2000 1.4.6 / Dynamic Range Meter 1.1.1
log date: 2021-10-24 06:35:25
--------------------------------------------------------------------------------
Analyzed: Nancy Wilson / Like, In Love!
--------------------------------------------------------------------------------
DR         Peak         RMS     Duration Track
--------------------------------------------------------------------------------
DR12       0.00 dB   -13.91 dB      1:43 01-On The Street Where You Live (Remastered)
DR13       0.00 dB   -15.16 dB      2:35 02-Night Mist (Remastered)
DR12       0.00 dB   -15.60 dB      2:27 03-You Leave Me Breathless (Remastered)
DR12       0.00 dB   -15.43 dB      2:12 04-The More I See You (Remastered)
DR13       0.00 dB   -15.88 dB      2:19 05-I Want To Be Loved (Remastered)
DR10      -1.40 dB   -14.02 dB      1:46 06-Almost Like Being In Love (Remastered)
DR11      -1.39 dB   -14.13 dB      1:58 07-People Will Say We're In Love (Remastered)
DR11      -0.07 dB   -16.97 dB      2:23 08-Passion Flower (Remastered)
DR13       0.00 dB   -15.20 dB      1:47 09-Sometimes I'm Happy (Remastered)
DR14       0.00 dB   -17.75 dB      2:52 10-In Other Words (Remastered)
DR12       0.00 dB   -14.59 dB      1:50 11-All Of You (Remastered)
DR12       0.00 dB   -15.95 dB      2:08 12-If It's The Last Thing I Do (Remastered)
DR13       0.00 dB   -15.37 dB      2:49 13-Teach Me  Tonight (Remastered)
DR12       0.00 dB   -14.18 dB      2:18 14-This Time The Dream's On Me (Remastered)
DR13       0.00 dB   -15.50 dB      2:37 15-I'm Gonna Laugh You Right Out Of My Life (Remastered)
DR13       0.00 dB   -14.22 dB      1:59 16-I Wish You Love (Remastered)
DR15       0.00 dB   -18.66 dB      3:22 17-Guess Who I Saw Today? (Remastered)
DR13       0.00 dB   -14.72 dB      1:48 18-I'm Gonna Laugh You Right Out Of My Life (Remastered)
DR13      -0.35 dB   -15.99 dB      2:26 19-What A Little Moonlight Can Do (Remastered)
DR14       0.00 dB   -16.57 dB      2:43 20-The Great City (Remastered)
DR13      -0.06 dB   -16.73 dB      2:28 21-He's My Guy (Remastered)
DR14       0.00 dB   -16.32 dB      1:59 22-Something Happens To Me (Remastered)
DR14      -1.10 dB   -17.91 dB      2:26 23-Call It Stormy Monday (Remastered)
DR14       0.00 dB   -16.93 dB      2:44 24-Something Wonderful Happens (Remastered)
--------------------------------------------------------------------------------
Number of tracks:  24
Official DR value: DR13
Samplerate:        44100 Hz
Channels:          2
Bits per sample:   24
Bitrate:           1376 kbps
Codec:             FLAC
================================================================================
По всем вопросам пишите личное сообщение пользователю M0p94ok.
19:31
105
Нет комментариев. Ваш будет первым!