Поиск

1960 Mongo Santamaria - Our Man In Havana! (2018) [24-44.1]

1960 Mongo Santamaria - Our Man In Havana! (2018) [24-44.1]
Стили:
Носитель:
WEB
Формат:
PCM
Тип рипа:
tracks+.cue
Контейнер:
APE (*.ape)
Количество каналов:
2.0
Разрядность/ЧД:
24/44,1
Битрейт аудио:
lossless
Время звучания:
01:13:44
Наличие сканов:
web
Наличие водяных знаков:
нет
Страна-производитель диска (релиза):
USA
Релизёр (источник):
M0p94ok

Треклист:

01. Jamaicuba  03:28
02. Manila  04:43
03. He Guapacha  04:09
04. Cha Cha Rock  03:47
05. Vengan Pollos  04:59
06. Barandanga  03:16
07. Linda Guajira  03:03
08. Vamos A Gozar  02:35
09. Miss Patti Cha Cha  04:16
10. Viva La Felicidad  02:31
11. Tele Mina For Chango  02:59
12. Olla De For Olla  03:48
13. Yemaya Olodo For Olla  03:37
14. Yeye-o For Ochun  04:10
15. Wolenche For Chango  02:45
16. Aqua Limpia  03:37
17. Ochun Mene  04:11
18. Mexico  03:20
19. Manana Son Manana  04:06
20. Complicaciones  03:46

Лог проверки качества
foobar2000 1.3.16 / Dynamic Range Meter 1.1.1
log date: 2019-03-26 23:43:24

--------------------------------------------------------------------------------
Analyzed: Mongo Santamaria / Our Man In Havana!
--------------------------------------------------------------------------------

DR         Peak         RMS     Duration Track
--------------------------------------------------------------------------------
DR2        0.00 dB    -3.23 dB      3:31 01-Jamaicuba (remastered)
DR3        0.00 dB    -4.01 dB      4:45 02-Manila (remastered)
DR3        0.00 dB    -4.93 dB      4:10 03-He Guapacha (remastered)
DR3        0.00 dB    -4.27 dB      3:49 04-Cha Cha Rock (remastered)
DR3        0.00 dB    -4.02 dB      5:01 05-Vengan Pollos (remastered)
DR2        0.00 dB    -3.53 dB      3:18 06-Barandanga (remastered)
DR3        0.00 dB    -4.51 dB      3:05 07-Linda Guajira (remastered)
DR2        0.00 dB    -3.65 dB      2:37 08-Vamos A Gozar (remastered)
DR3        0.00 dB    -4.74 dB      4:18 09-Miss Patti Cha Cha (remastered)
DR3        0.00 dB    -3.96 dB      2:33 10-Viva La Felicidad (remastered)
DR3        0.00 dB    -3.80 dB      3:01 11-Tele Mina for Chango (remastered)
DR2        0.00 dB    -3.56 dB      3:50 12-Olla De For Olla (remastered)
DR3        0.00 dB    -5.24 dB      3:39 13-Yemaya Olodo For Olla (remastered)
DR4        0.00 dB    -6.21 dB      4:12 14-Yeye-o for Ochun (remastered)
DR3        0.00 dB    -3.92 dB      2:47 15-Wolenche For Chango (remastered)
DR3        0.00 dB    -4.87 dB      3:39 16-Aqua Limpia (remastered)
DR2        0.00 dB    -3.68 dB      4:13 17-Ochun Mene (remastered)
DR2        0.00 dB    -4.46 dB      3:23 18-Mexico (Guaguanco) (remastered)
DR2        0.00 dB    -3.18 dB      4:09 19-Manana Son Manana (remastered)
DR3        0.00 dB    -5.67 dB      3:49 20-Complicaciones (remastered)
--------------------------------------------------------------------------------

Number of tracks:  20
Official DR value: DR3

Samplerate:        44100 Hz
Channels:          2
Bits per sample:   24
Bitrate:           1612 kbps
Codec:             FLAC
================================================================================
Приватный:
Нет (DHT включён)
Размер:
903.43 Мб (947,317,158 байт) » файлов: 22
Участники:
0 раздают, 0 качают (0 участников всего)
Внешние участники:
--- [ Обновить ]
No seeders - write personal message to M0p94ok. Any questions - support@pro-jazz.com.
Нет сидеров - пишите в личку M0p94ok. Есть вопросы - support@pro-jazz.com
17:58
115
Нет комментариев. Ваш будет первым!