Поиск

1960 Johnny Smith - My Dear Little Sweetheart (2004) {Toshiba EMI TOCJ-9602 (SLP-2239)}

1960 Johnny Smith - My Dear Little Sweetheart (2004) {Toshiba EMI TOCJ-9602 (SLP-2239)}
Стили:
Издатель (лейбл):
Треклист:
Страна-производитель диска: Japan
Год издания диска: 2004
Номер по каталогу: TOCJ-9602 (SLP-2239)
Страна: USA
Аудио кодек: FLAC (*.flac)
Тип рипа: tracks+.cue
Битрейт аудио: lossless
Продолжительность: 36:19
Источник (релизер): jack335
Наличие сканов в содержимом раздачи: да
Треклист:
01. My Dear Little Sweetheart
02. Indian Summer
03. Softly As In A Morning Sunrise
04. All The Things You Are
05. It's So Peaceful In The Country
06. Once In A While
07. Flamingo
08. Spring Is Here
09. Violets For Her Furs
10. It Never Entered My Mind
 
Лог создания рипа
Exact Audio Copy V0.99 prebeta 5 from 4. May 2009
EAC extraction logfile from 20. November 2010, 18:38
Johnny Smith / My Dear Little Sweetheart (TOCJ 9602)(1960)
Used drive : PHILIPS SPD2519T Adapter: 1 ID: 0
Read mode : Secure
Utilize accurate stream : Yes
Defeat audio cache : Yes
Make use of C2 pointers : No
Read offset correction : 6
Overread into Lead-In and Lead-Out : No
Fill up missing offset samples with silence : Yes
Delete leading and trailing silent blocks : No
Null samples used in CRC calculations : Yes
Used interface : Installed external ASPI interface
Gap handling : Not detected, thus appended to previous track
Used output format : User Defined Encoder
Selected bitrate : 1024 kBit/s
Quality : High
Add ID3 tag : Yes
Command line compressor : C:\Program Files\FLAC\flac.exe
Additional command line options : -6 -6 -V -T "ARTIST=%a" -T "TITLE=%t" -T "ALBUM=%g" -T "DATE=%y" -T "TRACKNUMBER=%n" -T "GENRE=%m" -T "COMMENT=EAC FLAC -6" %s
TOC of the extracted CD
Track | Start | Length | Start sector | End sector
---------------------------------------------------------
1 | 0:00.00 | 3:45.37 | 0 | 16911
2 | 3:45.37 | 3:45.08 | 16912 | 33794
3 | 7:30.45 | 3:08.57 | 33795 | 47951
4 | 10:39.27 | 4:20.33 | 47952 | 67484
5 | 14:59.60 | 3:53.70 | 67485 | 85029
6 | 18:53.55 | 3:14.00 | 85030 | 99579
7 | 22:07.55 | 3:27.45 | 99580 | 115149
8 | 25:35.25 | 3:06.35 | 115150 | 129134
9 | 28:41.60 | 3:49.65 | 129135 | 146374
10 | 32:31.50 | 3:52.47 | 146375 | 163821
Track 1
Filename D:\Johnny Smith - My Dear Little Sweetheart (TOCJ 9602)(1960)\01 - My Dear Little Sweetheart.wav
Peak level 99.9 %
Track quality 100.0 %
Copy CRC 5C0A155F
Track not present in AccurateRip database
Copy OK
Track 2
Filename D:\Johnny Smith - My Dear Little Sweetheart (TOCJ 9602)(1960)\02 - Indian Summer.wav
Peak level 99.9 %
Track quality 99.9 %
Copy CRC 815FD848
Track not present in AccurateRip database
Copy OK
Track 3
Filename D:\Johnny Smith - My Dear Little Sweetheart (TOCJ 9602)(1960)\03 - Softly , As In A Morning Sunrise.wav
Peak level 98.8 %
Track quality 100.0 %
Copy CRC 763A48AC
Track not present in AccurateRip database
Copy OK
Track 4
Filename D:\Johnny Smith - My Dear Little Sweetheart (TOCJ 9602)(1960)\04 - All The Things You Are.wav
Peak level 100.0 %
Track quality 100.0 %
Copy CRC 98BCB684
Track not present in AccurateRip database
Copy OK
Track 5
Filename D:\Johnny Smith - My Dear Little Sweetheart (TOCJ 9602)(1960)\05 - It's So Peaceful In The Country.wav
Peak level 95.8 %
Track quality 100.0 %
Copy CRC 6951967E
Track not present in AccurateRip database
Copy OK
Track 6
Filename D:\Johnny Smith - My Dear Little Sweetheart (TOCJ 9602)(1960)\06 - Once In A While.wav
Peak level 99.9 %
Track quality 100.0 %
Copy CRC 9EA03ED8
Track not present in AccurateRip database
Copy OK
Track 7
Filename D:\Johnny Smith - My Dear Little Sweetheart (TOCJ 9602)(1960)\07 - Flamingo.wav
Peak level 98.8 %
Track quality 100.0 %
Copy CRC EF89A9E8
Track not present in AccurateRip database
Copy OK
Track 8
Filename D:\Johnny Smith - My Dear Little Sweetheart (TOCJ 9602)(1960)\08 - Spring Is Here.wav
Peak level 100.0 %
Track quality 100.0 %
Copy CRC B70A7794
Track not present in AccurateRip database
Copy OK
Track 9
Filename D:\Johnny Smith - My Dear Little Sweetheart (TOCJ 9602)(1960)\09 - Violets For Her Furs.wav
Peak level 86.3 %
Track quality 100.0 %
Copy CRC 21C54910
Track not present in AccurateRip database
Copy OK
Track 10
Filename D:\Johnny Smith - My Dear Little Sweetheart (TOCJ 9602)(1960)\10 - It Never Entered My Mind.wav
Peak level 99.9 %
Track quality 100.0 %
Copy CRC C473511A
Track not present in AccurateRip database
Copy OK
None of the tracks are present in the AccurateRip database
No errors occurred
End of status report
 
 
Содержание индексной карты (.CUE)
REM GENRE Jazz
REM DATE 1960
REM COMMENT EAC FLAC -6
PERFORMER "Johnny Smith"
TITLE "My Dear Little Sweetheart (TOCJ 9602)(1960)"
FILE "01 - My Dear Little Sweetheart.flac" WAVE
  TRACK 01 AUDIO
    TITLE "My Dear Little Sweetheart"
    INDEX 01 00:00:00
FILE "02 - Indian Summer.flac" WAVE
  TRACK 02 AUDIO
    TITLE "Indian Summer"
    INDEX 01 00:00:00
FILE "03 - Softly , As In A Morning Sunrise.flac" WAVE
  TRACK 03 AUDIO
    TITLE "Softly , As In A Morning Sunrise"
    INDEX 01 00:00:00
FILE "04 - All The Things You Are.flac" WAVE
  TRACK 04 AUDIO
    TITLE "All The Things You Are"
    INDEX 01 00:00:00
FILE "05 - It's So Peaceful In The Country.flac" WAVE
  TRACK 05 AUDIO
    TITLE "It's So Peaceful In The Country"
    INDEX 01 00:00:00
FILE "06 - Once In A While.flac" WAVE
  TRACK 06 AUDIO
    TITLE "Once In A While"
    INDEX 01 00:00:00
FILE "07 - Flamingo.flac" WAVE
  TRACK 07 AUDIO
    TITLE "Flamingo"
    INDEX 01 00:00:00
FILE "08 - Spring Is Here.flac" WAVE
  TRACK 08 AUDIO
    TITLE "Spring Is Here"
    INDEX 01 00:00:00
FILE "09 - Violets For Her Furs.flac" WAVE
  TRACK 09 AUDIO
    TITLE "Violets For Her Furs"
    INDEX 01 00:00:00
FILE "10 - It Never Entered My Mind.flac" WAVE
  TRACK 10 AUDIO
    TITLE "It Never Entered My Mind"
    INDEX 01 00:00:00
 
 
Лог проверки качества
Started at: вторник, 23. 11. 2010. - 20:11.46
10 files found
01 -===- E:\Закачано\Music\JAZZ\Johnny Smith - My Dear Little Sweetheart\01 - My Dear Little Sweetheart.flac
  Extracted successfully
  Conclusion: this track is CDDA with probability 100%
  Tempfile successfully deleted.
02 -===- E:\Закачано\Music\JAZZ\Johnny Smith - My Dear Little Sweetheart\02 - Indian Summer.flac
  Extracted successfully
  Conclusion: this track is CDDA with probability 99%
  Tempfile successfully deleted.
03 -===- E:\Закачано\Music\JAZZ\Johnny Smith - My Dear Little Sweetheart\03 - Softly , As In A Morning Sunrise.flac
  Extracted successfully
  Conclusion: this track is CDDA with probability 100%
  Tempfile successfully deleted.
04 -===- E:\Закачано\Music\JAZZ\Johnny Smith - My Dear Little Sweetheart\04 - All The Things You Are.flac
  Extracted successfully
  Conclusion: this track is CDDA with probability 99%
  Tempfile successfully deleted.
05 -===- E:\Закачано\Music\JAZZ\Johnny Smith - My Dear Little Sweetheart\05 - It's So Peaceful In The Country.flac
  Extracted successfully
  Conclusion: this track is CDDA with probability 100%
  Tempfile successfully deleted.
06 -===- E:\Закачано\Music\JAZZ\Johnny Smith - My Dear Little Sweetheart\06 - Once In A While.flac
  Extracted successfully
  Conclusion: this track is CDDA with probability 100%
  Tempfile successfully deleted.
07 -===- E:\Закачано\Music\JAZZ\Johnny Smith - My Dear Little Sweetheart\07 - Flamingo.flac
  Extracted successfully
  Conclusion: this track is CDDA with probability 100%
  Tempfile successfully deleted.
08 -===- E:\Закачано\Music\JAZZ\Johnny Smith - My Dear Little Sweetheart\08 - Spring Is Here.flac
  Extracted successfully
  Conclusion: this track is CDDA with probability 100%
  Tempfile successfully deleted.
09 -===- E:\Закачано\Music\JAZZ\Johnny Smith - My Dear Little Sweetheart\09 - Violets For Her Furs.flac
  Extracted successfully
  Conclusion: this track is CDDA with probability 100%
  Tempfile successfully deleted.
10 -===- E:\Закачано\Music\JAZZ\Johnny Smith - My Dear Little Sweetheart\10 - It Never Entered My Mind.flac
  Extracted successfully
  Conclusion: this track is CDDA with probability 100%
  Tempfile successfully deleted.
Finished at: вторник, 23. 11. 2010. - 20:15.25 (operation time: 0:03.39)
Приватный:
Нет (DHT включён)
Размер:
210.62 Мб (220,846,706 байт) » файлов: 16
Участники:
0 раздают, 0 качают (0 участников всего)
Внешние участники:
1 раздают, 0 качают (1 участников всего) [ Обновить ]
Никого нет на раздаче - пишите личное сообщение M0p94ok
No seeders - write personal message to M0p94ok
15:44
132
Нет комментариев. Ваш будет первым!