Вы используете незарегистрированную версию компонента "Вкладки"!

Поиск

1960 Ella Fitzgerald - Ella Wishes You a Swinging Christmas (2015) {Trunk} [24-44,1]

1960 Ella Fitzgerald - Ella Wishes You a Swinging Christmas (2015) {Trunk} [24-44,1]
Стили:
Доп. инфо:

Формат записи/Источник записи: [TR24][OF]
Год издания/переиздания диска: 1960/2015
Издатель (лейбл): Trunk Records
Продолжительность: 00:34:17
Наличие сканов в содержимом раздачи: Нет

Контейнер: FLAC (*.flac)
Тип рипа: tracks
Разрядность: 24/44,1
Количество каналов: 2.0

Источник (релизер): Qobuz

Лог проверки качества
foobar2000 1.3.16 / Dynamic Range Meter 1.1.1
log date: 2017-05-08 14:05:13

--------------------------------------------------------------------------------
Analyzed: Ella Fitzgerald / Ella Wishes You a Swinging Christmas
--------------------------------------------------------------------------------

DR         Peak         RMS     Duration Track
--------------------------------------------------------------------------------
DR13      -2.84 dB   -18.60 dB      2:26 01-Jingle Bells
DR13      -4.25 dB   -20.25 dB      2:24 02-Santa Claus Is Coming To Town
DR12      -6.94 dB   -22.04 dB      3:00 03-Have Yourself A Merry Little Christmas
DR12      -7.57 dB   -22.68 dB      3:38 04-What Are You Doing New Year's Eve
DR16      -4.56 dB   -22.74 dB      3:00 05-Sleigh Ride
DR14      -7.29 dB   -27.39 dB      3:07 06-The Christmas Song
DR14      -5.60 dB   -22.36 dB      3:16 07-Good Morning Blues
DR12      -5.09 dB   -19.65 dB      2:50 08-Let It Snow! Let It Snow! Let It Snow!
DR12      -5.12 dB   -19.88 dB      2:21 09-Winter Wonderland
DR13      -6.10 dB   -20.94 dB      2:57 10-Rudolph The Red-Nosed Reindeer
DR13      -3.93 dB   -19.19 dB      2:17 11-Frosty The Snowman
DR13      -4.82 dB   -20.58 dB      3:05 12-White Christmas
--------------------------------------------------------------------------------

Number of tracks:  12
Official DR value: DR13

Samplerate:        44100 Hz
Channels:          2
Bits per sample:   24
Bitrate:           1418 kbps
Codec:             FLAC
================================================================================
Any questions - support@pro-jazz.com. Есть вопросы - support@pro-jazz.com
16:32
253
Нет комментариев. Ваш будет первым!