Поиск

1960 Bobby Timmons - This Here Is Bobby Timmons (2004) {Riverside, Fantasy} [DSD64 2,8-1]

1960 Bobby Timmons - This Here Is Bobby Timmons (2004) {Riverside, Fantasy} [DSD64 2,8-1]
Стили:
Издатель (лейбл):

Треклист:

Формат записи/Источник записи: [SACD-R][OF]
Наличие водяных знаков: Нет
Год издания/переиздания диска: 1960/2004
Продолжительность: 00:37:37
Наличие сканов в содержимом раздачи: Только обложка альбома
Контейнер: ISO (*.iso)
Тип рипа: image
Разрядность: 64(2,8 MHz/1 Bit)
Формат: DSD
Количество каналов: 2.0
Источник (релизер): jazzyman (PS³SACD)
http://www.sa-cd.net/showreviews/2543

Треклист:
01. This Here
02. Moanin’
03. Lush Life
04. The Party’s Over
05. Prelude To A Kiss
06. Dat Dere
07. My Funny Valentine
08. Come Rain or Come Shine
09. Joy Ride

 
Лог DR
foobar2000 1.3.13 / Замер динамического диапазона (DR) 1.1.1
Дата отчёта:  2018-06-25 13:43:20
--------------------------------------------------------------------------------
Анализ:   Bobby Timmons / This Here Is Bobby Timmons
--------------------------------------------------------------------------------
DR         Пики         RMS           Продолжительность трека
--------------------------------------------------------------------------------
DR11      -4.60 дБ   -19.25 дБ      3:31 01-This Here
DR13      -4.07 дБ   -19.75 дБ      5:07 02-Moanin'
DR13      -5.98 дБ   -21.74 дБ      2:28 03-Lush Life
DR14      -3.76 дБ   -19.66 дБ      4:12 04-The Party's Over
DR14      -5.43 дБ   -23.39 дБ      3:21 05-Prelude to a Kiss
DR13      -4.39 дБ   -20.01 дБ      5:23 06-Dat Dere
DR13      -4.58 дБ   -21.07 дБ      5:06 07-My Funny Valentine
DR14      -4.15 дБ   -20.73 дБ      4:30 08-Come Rain or Come Shine
DR13      -4.37 дБ   -19.04 дБ      3:58 09-Joy Ride
--------------------------------------------------------------------------------
Количество треков: 9
Реальные значения DR: DR13
Частота:   2822400 Гц / Частота PCM: 352800 Гц
Каналов:   2
Разрядность:   24
Битрейт:   5645 кбит/с
Кодек:   DST64
================================================================================

 

Приватный:
Нет (DHT включён)
Размер:
605.25 Мб (634,650,377 байт) » файлов: 4
Участники:
8 раздают, 2 качают (10 участников всего)
Внешние участники:
1 раздают, 0 качают (1 участников всего) [ Обновить ]
Нет сидеров - пишите личное сообщение M0p94ok. Не нравятся торренты? Участники группы Pro-jazz Club могут заказать прямую ссылку на скачивание из облака.
No seeders - write a personal message to M0p94ok. Don't like torrents? Members of Pro-jazz Club group can order a direct download link from the cloud.
11:15
108
Нет комментариев. Ваш будет первым!