Поиск

1960 Betty Carter - The Modern Sound Of Betty Carter (2021) {RevOla} [24-96]

1960 Betty Carter - The Modern Sound Of Betty Carter (2021) {RevOla} [24-96]
Стили:
Дата записи диска:
18 августа - 30 августа 1960
Издатель (лейбл):
Носитель:
WEB
Формат:
PCM
Тип рипа:
tracks
Контейнер:
FLAC (*.flac)
Количество каналов:
2.0
Разрядность/ЧД:
24/96
Битрейт аудио:
lossless
Время звучания:
00:30:27
Наличие сканов:
только обложка

01 - What A Little Moonlight Can Do (02:05)
02 - There's No You (03:11)
03 - I Don't Want To Set The World On Fire (02:24)
04 - Remember (02:24)
05 - My Reverie (02:49)
06 - Mean To Me (02:06)
07 - Don't Weep For The Lady (03:02)
08 - Jazz (Ain't Nothing But Soul) (01:57)
09 - For You (02:21)
10 - Stormy Weather (03:23)
11 - At Sundown (02:43)
12 - On The Alamo (01:57)

Состав:
  • Arranged By, Conductor – Richard Wess
  • Vocals – Betty Carter
  • Engineer – Bill MacMeeken
  • Producer – Sid Feller
Лог проверки качества
foobar2000 1.4.2 / Dynamic Range Meter 1.1.1
log date: 2021-08-11 09:20:05
--------------------------------------------------------------------------------
Analyzed: Betty Carter / The Modern Sound Of Betty Carter
--------------------------------------------------------------------------------
DR         Peak         RMS     Duration Track
--------------------------------------------------------------------------------
DR11      -1.91 dB   -15.16 dB      2:05 01-What A Little Moonlight Can Do? (Remastered)
DR11      -1.91 dB   -17.12 dB      3:11 02-There's No You (Remastered)
DR12      -1.28 dB   -16.67 dB      2:24 03-I Don't Want To Set The World On Fire (Remastered)
DR11      -0.45 dB   -16.72 dB      2:25 04-Remember (Remastered)
DR13      -0.08 dB   -16.93 dB      2:50 05-My Reverie (Remastered)
DR10      -1.80 dB   -17.51 dB      2:06 06-Mean To Me (Remastered)
DR13      -1.74 dB   -18.05 dB      3:03 07-Don't Weep For The Lady (Remastered)
DR13      -0.48 dB   -15.96 dB      1:57 08-Jazz (Ain't Nothing But Soul) (Remastered)
DR11      -1.16 dB   -15.59 dB      2:21 09-For You (Remastered)
DR14      -0.40 dB   -19.75 dB      3:23 10-Stormy Weather (Remastered)
DR13      -0.90 dB   -16.07 dB      2:44 11-At Sundown (Remastered)
DR10      -2.13 dB   -15.28 dB      1:58 12-On The Alamo (Remastered)
--------------------------------------------------------------------------------
Number of tracks:  12
Official DR value: DR12
Samplerate:        96000 Hz
Channels:          2
Bits per sample:   24
Bitrate:           2505 kbps
Codec:             FLAC
================================================================================
Приватный:
Нет (DHT включён)
Размер:
547.03 Мб (573,606,858 байт) » файлов: 13
Участники:
0 раздают, 0 качают (0 участников всего)
Внешние участники:
2 раздают, 1 качают (3 участников всего) [ Обновить ]
01:33
471
Нет комментариев. Ваш будет первым!