Вы используете незарегистрированную версию компонента "Вкладки"!

Поиск

1960-1968 Coleman Hawkins - Lover Man (2017) {2xHD, Storyville} [24-192]

1960-1968 Coleman Hawkins - Lover Man (2017) {2xHD, Storyville} [24-192]
Стили:
Издатель (лейбл):
Битрейт аудио:
lossless
Доп. инфо:

Формат записи/Источник записи: [TR24][OF]
Издание: Remastered
Год издания/переиздания диска: 1960-1968/2017
Продолжительность: 00:35:52
Наличие сканов в содержимом раздачи: Буклет PDF

Контейнер: FLAC (*.flac)
Тип рипа: tracks
Разрядность: 24/192
Количество каналов: 2.0

Источник (релизер): HDTracks

Лог проверки качества
foobar2000 1.4.3 / Dynamic Range Meter 1.1.1
log date: 2020-04-30 11:02:26

--------------------------------------------------------------------------------
Analyzed: Coleman Hawkins / Lover Man (Remastered)
--------------------------------------------------------------------------------

DR         Peak         RMS     Duration Track
--------------------------------------------------------------------------------
DR12      -1.09 dB   -15.09 dB      5:11 01-Lover Man: Lover Man (Oh, Where Can You Be?)
DR12      -1.83 dB   -16.07 dB      3:55 02-Sweet Georgia Brown
DR12      -1.01 dB   -15.45 dB      7:27 03-Stuffy
DR15      -0.11 dB   -18.38 dB      6:32 04-Yesterdays (from "Roberta"): Roberta: Yesterdays
DR12       0.00 dB   -14.57 dB      5:57 05-Marianne: Just You, Just Me
DR12      -2.06 dB   -15.82 dB      6:52 06-All the Things You Are: Very Warm for May: All the Things You Are
--------------------------------------------------------------------------------

Number of tracks:  6
Official DR value: DR13

Samplerate:        192000 Hz
Channels:          2
Bits per sample:   24
Bitrate:           4222 kbps
Codec:             FLAC
================================================================================
Any questions - support@pro-jazz.com. Есть вопросы - support@pro-jazz.com
14:29
252
Нет комментариев. Ваш будет первым!