Поиск

1959 June Christy - Ballads For Night People (2018) {RevOla} [24-44.1]

1959 June Christy - Ballads For Night People (2018) {RevOla} [24-44.1]
Стили:
Дата переиздания диска:
10 октября 2018
Издатель (лейбл):
Носитель:
WEB
Формат:
PCM
Тип рипа:
tracks
Контейнер:
FLAC (*.flac)
Количество каналов:
2.0
Разрядность/ЧД:
24/44,1
Битрейт аудио:
lossless
Наличие сканов:
только обложка

01 - Bewitched 04:56
02 - Night People 03:20
03 - Do Nothin' Till You Hear From Me 04:06
04 - I Had a Little Sorrow 03:50
05 - I'm in Love 02:45
06 - Shadow Women 03:13
07 - Kissing Bug 02:41
08 - My Ship 03:58
09 - Don't Get Around Much Anymore 02:58
10 - Make Love to Me 03:08

Состав:
  • June Christy – vocals
  • Bob Cooper – arranger, conductor, tenor saxophone
  • Frank Rosolino – trombone
  • Bud Shank – alto saxophone, flute
  • Buddy Collette – clarinet
  • Chuck Gentry – bass clarinet, contrabass clarinet
  • Joe Castro – piano
  • Red Callender – bass
  • Mel Lewis – drums
  • Stan Levey – drums
  • Kathryn Julye – harp
  • Jim Decker – French horn
  • Norman Benno – English horn, bassoon
Лог проверки качества
foobar2000 1.4.3 / Dynamic Range Meter 1.1.1
log date: 2021-12-18 15:28:59
--------------------------------------------------------------------------------
Analyzed: June Christy / Ballads For Night People
--------------------------------------------------------------------------------
DR         Peak         RMS     Duration Track
--------------------------------------------------------------------------------
DR14      -4.58 dB   -22.30 dB      4:56 01-Bewitched (remastered)
DR13      -3.75 dB   -20.03 dB      3:20 02-Night People (remastered)
DR13      -3.76 dB   -21.50 dB      4:06 03-Do Nothin' Till You Hear From Me (remastered)
DR16      -2.40 dB   -28.02 dB      3:50 04-I Had a Little Sorrow (remastered)
DR13      -4.81 dB   -20.89 dB      2:45 05-I'm in Love (remastered)
DR12      -6.16 dB   -21.89 dB      3:14 06-Shadow Women (remastered)
DR16      -1.83 dB   -21.83 dB      2:42 07-Kissing Bug (remastered)
DR13      -4.70 dB   -20.49 dB      3:59 08-My Ship (remastered)
DR15      -1.80 dB   -20.38 dB      2:58 09-Don't Get Around Much Anymore (remastered)
DR15      -2.98 dB   -21.36 dB      3:08 10-Make Love to Me (remastered)
--------------------------------------------------------------------------------
Number of tracks:  10
Official DR value: DR14
Samplerate:        44100 Hz
Channels:          2
Bits per sample:   24
Bitrate:           1367 kbps
Codec:             FLAC
================================================================================
Приватный:
Нет (DHT включён)
Размер:
348.09 Мб (364,997,362 байт) » файлов: 15
Участники:
0 раздают, 0 качают (0 участников всего)
Внешние участники:
5 раздают, 1 качают (6 участников всего) [ Обновить ]
11:02
319
Нет комментариев. Ваш будет первым!