Поиск

1959 Billy Taylor - One For Fun (2012) {Warner WPCR-27120} [CD]

1959 Billy Taylor - One For Fun (2012) {Warner WPCR-27120} [CD]
Стили:
Издатель (лейбл):

Треклист:
Носитель: CD
Страна-производитель диска: Japan
Год издания: 2012
Издатель (лейбл): Atlantic/Warner Japan/WEA/Rhino
Номер по каталогу: WPCR-27120
Аудиокодек: FLAC (*.flac)
Тип рипа: tracks+.cue
Битрейт аудио: lossless
Продолжительность: 37:30
Rip by ruskaval
Наличие сканов в содержимом раздачи: да
Треклист:
01. Summertime (3:50)
02. One For Fun (3:38)
03. That's For Sure (1:58)
04. A Little Southside Soul (4:28)
05. Blue Moon (5:10)
06. Makin' Whoopee (4:31)
07. Poinciana (5:35)
08. At Long Last Love (3:36)
09. When Lights Are Low (4:43)
 
Лог создания рипа
Exact Audio Copy V1.1 from 23. June 2015
EAC extraction logfile from 22. September 2016, 18:51
Billy Taylor / One For Fun
Used drive  : HL-DT-STDVDRAM GP50NW41   Adapter: 1  ID: 0
Read mode               : Secure
Utilize accurate stream : Yes
Defeat audio cache      : Yes
Make use of C2 pointers : No
Read offset correction                      : 6
Overread into Lead-In and Lead-Out          : No
Fill up missing offset samples with silence : Yes
Delete leading and trailing silent blocks   : No
Null samples used in CRC calculations       : Yes
Used interface                              : Native Win32 interface for Win NT & 2000
Gap handling                                : Appended to previous track
Used output format              : User Defined Encoder
Selected bitrate                : 1024 kBit/s
Quality                         : High
Add ID3 tag                     : No
Command line compressor         : C:\Program Files (x86)\FLAC Frontend\tools\flac.exe
Additional command line options : -8 -V -T "ARTIST=%artist%" -T "TITLE=%title%" -T "ALBUM=%albumtitle%" -T "DATE=%year%" -T "TRACKNUMBER=%tracknr%" -T "TOTALTRACKS=%numtracks%" -T "GENRE=%genre%" -T "ALBUMARTIST=%albumartist%" -T "ALBUM ARTIST=%albumartist%" -T "COMMENT=EAC Secure Mode, Test & Copy, AccurateRip, FLAC -8" %source%
TOC of the extracted CD
     Track |   Start  |  Length  | Start sector | End sector
    ---------------------------------------------------------
        1  |  0:00.00 |  3:50.35 |         0    |    17284
        2  |  3:50.35 |  3:38.01 |     17285    |    33635
        3  |  7:28.36 |  1:57.57 |     33636    |    42467
        4  |  9:26.18 |  4:28.23 |     42468    |    62590
        5  | 13:54.41 |  5:10.24 |     62591    |    85864
        6  | 19:04.65 |  4:30.52 |     85865    |   106166
        7  | 23:35.42 |  5:34.71 |    106167    |   131287
        8  | 29:10.38 |  3:36.00 |    131288    |   147487
        9  | 32:46.38 |  4:43.18 |    147488    |   168730
Track  1
     Filename D:\_EAC\Billy Taylor - One For Fun (1959) [FLAC] {WPCR-27120}\01 - Summertime.wav
     Pre-gap length  0:00:02.00
     Peak level 100.0 %
     Extraction speed 1.1 X
     Track quality 100.0 %
     Test CRC AC30EDA7
     Copy CRC AC30EDA7
     Accurately ripped (confidence 1)  [5FC4A334]  (AR v2)
     Copy OK
Track  2
     Filename D:\_EAC\Billy Taylor - One For Fun (1959) [FLAC] {WPCR-27120}\02 - One For Fun.wav
     Pre-gap length  0:00:03.25
     Copy aborted
Track  3
     Pre-gap length  0:00:03.02
     Copy aborted
Track  4
     Pre-gap length  0:00:03.44
     Copy aborted
Track  5
     Pre-gap length  0:00:01.70
     Copy aborted
Track  6
     Pre-gap length  0:00:03.13
     Copy aborted
Track  7
     Pre-gap length  0:00:03.21
     Copy aborted
Track  8
     Pre-gap length  0:00:03.40
     Copy aborted
Track  9
     Pre-gap length  0:00:02.66
     Copy aborted
 1 track(s) accurately ripped
 8 track(s) canceled
Some tracks could not be verified as accurate
There were errors
End of status report
==== Log checksum 681B4629FD78736FD6253227853C967B749479F4B258D1EBEC7E3A78079CE41F ====
------------------------------------------------------------
Exact Audio Copy V1.1 from 23. June 2015
EAC extraction logfile from 22. September 2016, 22:32
Billy Taylor / One For Fun
Used drive  : HL-DT-STDVDRAM GP50NW41   Adapter: 1  ID: 0
Read mode               : Secure
Utilize accurate stream : Yes
Defeat audio cache      : Yes
Make use of C2 pointers : No
Read offset correction                      : 6
Overread into Lead-In and Lead-Out          : No
Fill up missing offset samples with silence : Yes
Delete leading and trailing silent blocks   : No
Null samples used in CRC calculations       : Yes
Used interface                              : Native Win32 interface for Win NT & 2000
Gap handling                                : Appended to previous track
Used output format              : User Defined Encoder
Selected bitrate                : 1024 kBit/s
Quality                         : High
Add ID3 tag                     : No
Command line compressor         : C:\Program Files (x86)\FLAC Frontend\tools\flac.exe
Additional command line options : -8 -V -T "ARTIST=%artist%" -T "TITLE=%title%" -T "ALBUM=%albumtitle%" -T "DATE=%year%" -T "TRACKNUMBER=%tracknr%" -T "TOTALTRACKS=%numtracks%" -T "GENRE=%genre%" -T "ALBUMARTIST=%albumartist%" -T "ALBUM ARTIST=%albumartist%" -T "COMMENT=EAC Secure Mode, Test & Copy, AccurateRip, FLAC -8" %source%
TOC of the extracted CD
     Track |   Start  |  Length  | Start sector | End sector
    ---------------------------------------------------------
        1  |  0:00.00 |  3:50.35 |         0    |    17284
        2  |  3:50.35 |  3:38.01 |     17285    |    33635
        3  |  7:28.36 |  1:57.57 |     33636    |    42467
        4  |  9:26.18 |  4:28.23 |     42468    |    62590
        5  | 13:54.41 |  5:10.24 |     62591    |    85864
        6  | 19:04.65 |  4:30.52 |     85865    |   106166
        7  | 23:35.42 |  5:34.71 |    106167    |   131287
        8  | 29:10.38 |  3:36.00 |    131288    |   147487
        9  | 32:46.38 |  4:43.18 |    147488    |   168730
Track  1
     Filename D:\_EAC\Billy Taylor - One For Fun (1959) [FLAC] {WPCR-27120}\01 - Summertime.wav
     Pre-gap length  0:00:02.00
     Peak level 100.0 %
     Extraction speed 1.1 X
     Track quality 100.0 %
     Test CRC AC30EDA7
     Copy CRC AC30EDA7
     Accurately ripped (confidence 1)  [5FC4A334]  (AR v2)
     Copy OK
Track  2
     Filename D:\_EAC\Billy Taylor - One For Fun (1959) [FLAC] {WPCR-27120}\02 - One For Fun.wav
     Pre-gap length  0:00:03.25
     Peak level 100.0 %
     Extraction speed 1.2 X
     Track quality 100.0 %
     Test CRC 4E3F7ADF
     Copy CRC 4E3F7ADF
     Accurately ripped (confidence 1)  [A64E509B]  (AR v2)
     Copy OK
Track  3
     Filename D:\_EAC\Billy Taylor - One For Fun (1959) [FLAC] {WPCR-27120}\03 - That's For Sure.wav
     Pre-gap length  0:00:03.02
     Peak level 100.0 %
     Extraction speed 1.2 X
     Track quality 100.0 %
     Test CRC 6FCBFE54
     Copy CRC 6FCBFE54
     Accurately ripped (confidence 1)  [A00A95CD]  (AR v2)
     Copy OK
Track  4
     Filename D:\_EAC\Billy Taylor - One For Fun (1959) [FLAC] {WPCR-27120}\04 - A Little Southside Soul.wav
     Pre-gap length  0:00:03.44
     Peak level 100.0 %
     Extraction speed 1.4 X
     Track quality 100.0 %
     Test CRC 3A3CD2A6
     Copy CRC 3A3CD2A6
     Accurately ripped (confidence 1)  [0824A407]  (AR v2)
     Copy OK
Track  5
     Filename D:\_EAC\Billy Taylor - One For Fun (1959) [FLAC] {WPCR-27120}\05 - Blue Moon.wav
     Pre-gap length  0:00:01.70
     Peak level 100.0 %
     Extraction speed 1.6 X
     Track quality 100.0 %
     Test CRC CDD07538
     Copy CRC CDD07538
     Accurately ripped (confidence 1)  [BBA0B809]  (AR v2)
     Copy OK
Track  6
     Filename D:\_EAC\Billy Taylor - One For Fun (1959) [FLAC] {WPCR-27120}\06 - Makin' Whoopee.wav
     Pre-gap length  0:00:03.13
     Peak level 100.0 %
     Extraction speed 1.7 X
     Track quality 100.0 %
     Test CRC 2881BB03
     Copy CRC 2881BB03
     Accurately ripped (confidence 1)  [12BB486C]  (AR v2)
     Copy OK
Track  7
     Filename D:\_EAC\Billy Taylor - One For Fun (1959) [FLAC] {WPCR-27120}\07 - Poinciana.wav
     Pre-gap length  0:00:03.21
     Peak level 100.0 %
     Extraction speed 1.7 X
     Track quality 99.9 %
     Test CRC 19E9D9CD
     Copy CRC 19E9D9CD
     Accurately ripped (confidence 1)  [DC898532]  (AR v2)
     Copy OK
Track  8
     Filename D:\_EAC\Billy Taylor - One For Fun (1959) [FLAC] {WPCR-27120}\08 - At Long Last Love.wav
     Pre-gap length  0:00:03.40
     Peak level 100.0 %
     Extraction speed 1.8 X
     Track quality 100.0 %
     Test CRC 905F1699
     Copy CRC 905F1699
     Accurately ripped (confidence 1)  [FB7B6A68]  (AR v2)
     Copy OK
Track  9
     Filename D:\_EAC\Billy Taylor - One For Fun (1959) [FLAC] {WPCR-27120}\09 - When Lights Are Low.wav
     Pre-gap length  0:00:02.66
     Peak level 100.0 %
     Extraction speed 2.0 X
     Track quality 100.0 %
     Test CRC FBB069E2
     Copy CRC FBB069E2
     Accurately ripped (confidence 1)  [F90A1029]  (AR v2)
     Copy OK
All tracks accurately ripped
No errors occurred
End of status report
==== Log checksum DF05FB456FE213D3D4A24AE3F72E2859596B1D37E081AA3E77C2C1E9850C5A63 ====
 
 
Содержание индексной карты (.CUE)
REM GENRE Jazz
REM DATE 1959
REM DISCID 7608C909
REM COMMENT "ExactAudioCopy v1.1"
PERFORMER "Billy Taylor"
TITLE "One For Fun"
FILE "01 - Summertime.wav" WAVE
  TRACK 01 AUDIO
    TITLE "Summertime"
    PERFORMER "Billy Taylor"
    INDEX 01 00:00:00
  TRACK 02 AUDIO
    TITLE "One For Fun"
    PERFORMER "Billy Taylor"
    INDEX 00 03:47:10
FILE "02 - One For Fun.wav" WAVE
    INDEX 01 00:00:00
  TRACK 03 AUDIO
    TITLE "That's For Sure"
    PERFORMER "Billy Taylor"
    INDEX 00 03:34:74
FILE "03 - That's For Sure.wav" WAVE
    INDEX 01 00:00:00
  TRACK 04 AUDIO
    TITLE "A Little Southside Soul"
    PERFORMER "Billy Taylor"
    INDEX 00 01:54:13
FILE "04 - A Little Southside Soul.wav" WAVE
    INDEX 01 00:00:00
  TRACK 05 AUDIO
    TITLE "Blue Moon"
    PERFORMER "Billy Taylor"
    INDEX 00 04:26:28
FILE "05 - Blue Moon.wav" WAVE
    INDEX 01 00:00:00
  TRACK 06 AUDIO
    TITLE "Makin' Whoopee"
    PERFORMER "Billy Taylor"
    INDEX 00 05:07:11
FILE "06 - Makin' Whoopee.wav" WAVE
    INDEX 01 00:00:00
  TRACK 07 AUDIO
    TITLE "Poinciana"
    PERFORMER "Billy Taylor"
    INDEX 00 04:27:31
FILE "07 - Poinciana.wav" WAVE
    INDEX 01 00:00:00
  TRACK 08 AUDIO
    TITLE "At Long Last Love"
    PERFORMER "Billy Taylor"
    INDEX 00 05:31:31
FILE "08 - At Long Last Love.wav" WAVE
    INDEX 01 00:00:00
  TRACK 09 AUDIO
    TITLE "When Lights Are Low"
    PERFORMER "Billy Taylor"
    INDEX 00 03:33:09
FILE "09 - When Lights Are Low.wav" WAVE
    INDEX 01 00:00:00
Приватный:
Нет (DHT включён)
Размер:
404.22 Мб (423,855,867 байт) » файлов: 24
Участники:
0 раздают, 0 качают (0 участников всего)
Внешние участники:
3 раздают, 1 качают (4 участников всего) [ Обновить ]
No seeders - write a personal message to user M0p94ok. Нет сидеров - пишите личное сообщение пользователю M0p94ok.
21:40
126
Нет комментариев. Ваш будет первым!