Поиск

1959 Angela Maria - Canta Sucessos de David Nasser (2019) {RevOla} [24-44,1]

1959 Angela Maria - Canta Sucessos de David Nasser (2019) {RevOla} [24-44,1]
Дата издания диска:
2 мая 1959
Дата переиздания диска:
19 марта 2019
Издатель (лейбл):
Носитель:
WEB
Тип рипа:
tracks+.cue
Аудиокодек:
FLAC (*.flac)
Битрейт аудио:
lossless
Время звучания:
00:39:20
Наличие сканов:
web
Страна-производитель диска (релиза):
Brazil
Релизёр (источник):
M0p94ok
Лог проверки качества
foobar2000 1.3.16 / Dynamic Range Meter 1.1.1
log date: 2019-03-25 01:01:43

--------------------------------------------------------------------------------
Analyzed: Angela Maria / Angela Maria Canta Sucessos de David Nasser
--------------------------------------------------------------------------------

DR         Peak         RMS     Duration Track
--------------------------------------------------------------------------------
DR11      -1.79 dB   -16.92 dB      3:29 01-Atiraste Uma Pedra
DR10      -1.43 dB   -15.81 dB      3:50 02-Canta, Brasil
DR12      -2.20 dB   -17.59 dB      2:58 03-Deus lhe Pague
DR11      -2.43 dB   -17.27 dB      3:06 04-Carlos Gardel
DR11      -2.63 dB   -17.82 dB      3:52 05-Francisco Alves
DR11      -1.41 dB   -16.02 dB      2:36 06-Confeti
DR12      -2.61 dB   -18.68 dB      3:13 07-Pensando Em Ti
DR12      -2.26 dB   -16.19 dB      3:00 08-Mamãe
DR10      -2.18 dB   -17.00 dB      3:12 09-Esmagando Rosas
DR10      -2.65 dB   -16.86 dB      3:15 10-Mãe Maria
DR10      -2.64 dB   -17.72 dB      2:45 11-Silêncio do Cantor
DR10      -1.65 dB   -16.00 dB      4:05 12-Algodão
--------------------------------------------------------------------------------

Number of tracks:  12
Official DR value: DR11

Samplerate:        44100 Hz
Channels:          2
Bits per sample:   24
Bitrate:           1386 kbps
Codec:             FLAC
================================================================================
No seeders - write personal message to M0p94ok. Any questions - support@pro-jazz.com.
Нет сидеров - пишите в личку M0p94ok. Есть вопросы - support@pro-jazz.com
23:44
135
Нет комментариев. Ваш будет первым!