Поиск

1959 (2006) Paul Desmond - First Place Again {Collectables B000EZ90BG}

1959 (2006) Paul Desmond - First Place Again {Collectables B000EZ90BG}
Страна-производитель диска (релиза):
USA
Дата записи диска:
5-7 сентября 1959
Дата издания диска:
2006
Издатель (лейбл):
Номер по каталогу:
B000EZ90BG
Носитель:
CD
Битрейт аудио:
lossless
Аудиокодек:
FLAC (*.flac)
Тип рипа:
tracks+.cue
Время звучания:
42:14
Наличие сканов:
  • нет
Релизёр (источник):
twofootputt

Состав:

01. East of the Sun [5:42]
02. For All We Know [5:30]
03. I Get a Kick out of You [8:36]
04. Greensleeves [2:03]
05. Two Degrees East, Three Degrees West [7:25]
06. Time After Time [6:09]
07. You Go to My Head [6:25]

Лог создания рипа
Exact Audio Copy V0.99 prebeta 5 from 4. May 2009
EAC extraction logfile from 11. February 2010, 14:56
Paul Desmond and Friends / First Place Again
Used drive : _NEC DVD_RW ND-3550A Adapter: 0 ID: 0
Read mode : Secure
Utilize accurate stream : Yes
Defeat audio cache : Yes
Make use of C2 pointers : No
Read offset correction : 48
Overread into Lead-In and Lead-Out : No
Fill up missing offset samples with silence : Yes
Delete leading and trailing silent blocks : No
Null samples used in CRC calculations : Yes
Used interface : Installed external ASPI interface
Gap handling : Appended to previous track
Used output format : User Defined Encoder
Selected bitrate : 768 kBit/s
Quality : High
Add ID3 tag : No
Command line compressor : C:\Program Files\Exact Audio Copy\FLAC\FLAC.EXE
Additional command line options : -V -8 -T "artist=%a" -T "title=%t" -T "album=%g" -T "date=%y" -T "tracknumber=%n" -T "genre=%m" %s
TOC of the extracted CD Track | Start | Length | Start sector | End sector --------------------------------------------------------- 1 | 0:00.00 | 8:40.17 | 0 | 39016 2 | 8:40.17 | 5:34.25 | 39017 | 64091 3 | 14:14.42 | 7:28.62 | 64092 | 97753 4 | 21:43.29 | 2:05.71 | 97754 | 107199 5 | 23:49.25 | 6:28.58 | 107200 | 136357 6 | 30:18.08 | 5:46.13 | 136358 | 162320 7 | 36:04.21 | 6:10.17 | 162321 | 190087
Track 1 Filename L:\First Place Again FLAC\Paul Desmond and Friends - First Place Again - 01 - I Get a Kick Out of You.wav Pre-gap length 0:00:02.00 Peak level 100.0 % Track quality 100.0 % Test CRC 24BA475C Copy CRC 24BA475C Accurately ripped (confidence 2) [2B1B4240] Copy OK
Track 2 Filename L:\First Place Again FLAC\Paul Desmond and Friends - First Place Again - 02 - For All We Know.wav Pre-gap length 0:00:01.97 Peak level 100.0 % Track quality 100.0 % Test CRC 4C7E0CAD Copy CRC 4C7E0CAD Accurately ripped (confidence 2) [8A70E6E3] Copy OK
Track 3 Filename L:\First Place Again FLAC\Paul Desmond and Friends - First Place Again - 03 - 2 Degrees East, 3 Degrees West.wav Pre-gap length 0:00:02.00 Peak level 100.0 % Track quality 100.0 % Test CRC EBE91004 Copy CRC EBE91004 Accurately ripped (confidence 2) [F7EB4BBB] Copy OK
Track 4 Filename L:\First Place Again FLAC\Paul Desmond and Friends - First Place Again - 04 - Greensleeves.wav Pre-gap length 0:00:01.74 Peak level 100.0 % Track quality 100.0 % Test CRC 3A52FC29 Copy CRC 3A52FC29 Accurately ripped (confidence 2) [4CD94E86] Copy OK
Track 5 Filename L:\First Place Again FLAC\Paul Desmond and Friends - First Place Again - 05 - You Go to My Head.wav Pre-gap length 0:00:01.77 Peak level 100.0 % Track quality 100.0 % Test CRC A471F5E4 Copy CRC A471F5E4 Accurately ripped (confidence 2) [870BD288] Copy OK
Track 6 Filename L:\First Place Again FLAC\Paul Desmond and Friends - First Place Again - 06 - East of the Sun.wav Pre-gap length 0:00:01.82 Peak level 100.0 % Track quality 100.0 % Test CRC A5FCE8F7 Copy CRC A5FCE8F7 Accurately ripped (confidence 2) [9AEB23BD] Copy OK
Track 7 Filename L:\First Place Again FLAC\Paul Desmond and Friends - First Place Again - 07 - Time After Time.wav Pre-gap length 0:00:01.90 Peak level 100.0 % Track quality 99.9 % Test CRC B5C0219D Copy CRC B5C0219D Accurately ripped (confidence 2) [4B27C7D2] Copy OK
All tracks accurately ripped
No errors occurred
End of status report
Содержание индексной карты (.CUE)
REM GENRE Jazz
REM DATE 2006
REM DISCID 4A09E607
REM COMMENT "ExactAudioCopy v0.99pb5"
PERFORMER "Paul Desmod"
TITLE "First Place Again"
FILE "Paul Desmond and Friends - First Place Again - 01 - I Get a Kick Out of You.wav" WAVE TRACK 01 AUDIO TITLE "East of the Sun" PERFORMER "Paul Desmod" INDEX 01 00:00:00 TRACK 02 AUDIO TITLE "For All We Know" PERFORMER "Paul Desmod" INDEX 00 08:38:19
FILE "Paul Desmond and Friends - First Place Again - 02 - For All We Know.wav" WAVE INDEX 01 00:00:00 TRACK 03 AUDIO TITLE "I Get a Kick out of You" PERFORMER "Paul Desmod" INDEX 00 05:32:25
FILE "Paul Desmond and Friends - First Place Again - 03 - 2 Degrees East, 3 Degrees West.wav" WAVE INDEX 01 00:00:00 TRACK 04 AUDIO TITLE "Greensleeves" PERFORMER "Paul Desmod" INDEX 00 07:27:06
FILE "Paul Desmond and Friends - First Place Again - 04 - Greensleeves.wav" WAVE INDEX 01 00:00:00 TRACK 05 AUDIO TITLE "Two Degrees East, Three Degrees West" PERFORMER "Paul Desmod" INDEX 00 02:04:13
FILE "Paul Desmond and Friends - First Place Again - 05 - You Go to My Head.wav" WAVE INDEX 01 00:00:00 TRACK 06 AUDIO TITLE "Time After Time" PERFORMER "Paul Desmod" INDEX 00 06:26:71
FILE "Paul Desmond and Friends - First Place Again - 06 - East of the Sun.wav" WAVE INDEX 01 00:00:00 TRACK 07 AUDIO TITLE "You Go to My Head" PERFORMER "Paul Desmod" INDEX 00 05:44:20
FILE "Paul Desmond and Friends - First Place Again - 07 - Time After Time.wav" WAVE INDEX 01 00:00:00
Лог проверки качества
AUDIOCHECKER v2.0 beta (build 457) - by Dester - opdester@freemail.hu
~~~~~~~~~~~~~~~~~~~~~~~~~~~~~~~~~~
-=== DO NOT EDIT THIS FILE! ===-
Path: ...\Paul Desmod - First Place Again [2006]
1 -=- Paul Desmond and Friends - First Place Again - 01 - I Get a Kick Out of You.flac -=- CDDA (100%)
2 -=- Paul Desmond and Friends - First Place Again - 02 - For All We Know.flac -=- CDDA (100%)
3 -=- Paul Desmond and Friends - First Place Again - 03 - 2 Degrees East, 3 Degrees West.flac -=- CDDA (100%)
4 -=- Paul Desmond and Friends - First Place Again - 04 - Greensleeves.flac -=- CDDA (100%)
5 -=- Paul Desmond and Friends - First Place Again - 05 - You Go to My Head.flac -=- CDDA (100%)
6 -=- Paul Desmond and Friends - First Place Again - 06 - East of the Sun.flac -=- CDDA (100%)
7 -=- Paul Desmond and Friends - First Place Again - 07 - Time After Time.flac -=- CDDA (100%)
Summary 100,00% CDDA
197110836
Приватный:
Нет (DHT включён)
Размер:
230.18 Мб (241,361,555 байт) » файлов: 11
Участники:
0 раздают, 0 качают (0 участников всего)
Внешние участники:
1 раздают, 0 качают (1 участников всего) [ Обновить ]
Скорость:
148.99 Кб/c 0/c
00:44
147
RSS
Нет комментариев. Ваш будет первым!