Поиск

1959 (1993) Oscar Peterson - Oscar Peterson plays Porgy & Bess

1959 (1993) Oscar Peterson - Oscar Peterson plays Porgy & Bess
Страна-производитель диска (релиза):
USA
Дата записи диска:
12 октября 1959
Дата издания диска:
1959
Дата переиздания диска:
19 октября 1993
Номер по каталогу:
E5198072
Носитель:
CD
Битрейт аудио:
lossless
Аудиокодек:
APE (*.ape)
Тип рипа:
image+.cue
Время звучания:
41:05
Наличие сканов:
  • нет
Релизёр (источник):
Sidrr
Состав:
  • Ray Brown Bass
  • Norman Granz Producer
  • Benny Green Liner Notes
  • Oscar Peterson Piano
  • Ed Thigpen Drums

01. I Got Plenty o’Nuttin' (6:26)
02. I Wants to Stay Here (aka "I Loves You Porgy") (6:22)
03. Summertime (3:50)
04. Oh Dey's So Fresh and Fine (Strawberry Woman) (0:55)
05. Oh Lawd. I'm on My Way (2:35)
06. It Ain't Necessarily So (4:01)
07. There's a Boat dat's Leavin' Soon for New York (7:13)
08. Oh Bess. Oh Where's My Bess? (4:56)
09. Here Come de Honey Man (1:11)
10. Bess. You Is My Woman Now (3:28)

Лог создания рипа
Exact Audio Copy V0.99 prebeta 3 from 28. July 2007
Отчёт EAC об извлечении, выполненном 27. сентября 2007, 13:59
Oscar Peterson / Oscar Peterson Plays Porgy & Bess
Дисковод: _NEC DVD_RW ND-3550A Adapter: 1 ID: 0
Режим чтения : Достоверность
Использование точного потока : Да
Отключение кэша аудио : Да
Использование указателей C2 : Нет
Коррекция смещения при чтении : 48
Способность читать области Lead-in и Lead-out : Нет
Заполнение пропущенных сэмплов тишиной : Да
Удаление блоков с тишиной в начале и конце : Нет
При вычислениях CRC использовались нулевые сэмплы : Да
Интерфейс : Встроенный Win32-интерфейс для Win NT/2000
Выходной формат : Monkey's Audio Lossless Encoder v3.99 DLL
Формат сэмплов : High Lossless Compression
TOC извлечённого CD
Трек | Старт | Длительность | Начальный сектор | Конечный сектор
---------------------------------------------------------------------
1 | 0:00.32 | 6:26.08 | 32 | 28989
2 | 6:26.40 | 6:22.27 | 28990 | 57666
3 | 12:48.67 | 3:50.65 | 57667 | 74981
4 | 16:39.57 | 0:55.73 | 74982 | 79179
5 | 17:35.55 | 2:35.72 | 79180 | 90876
6 | 20:11.52 | 4:01.45 | 90877 | 108996
7 | 24:13.22 | 7:13.40 | 108997 | 141511
8 | 31:26.62 | 4:56.60 | 141512 | 163771
9 | 36:23.47 | 1:11.00 | 163772 | 169096
10 | 37:34.47 | 3:28.48 | 169097 | 184744
Характеристики диапазона извлечения и сообщения об ошибках
Выбранный диапазон
Имя файла D:\Torrent\Porgy & Bess\Oscar Peterson - Oscar Peterson Plays Porgy & Bess.ape
Пиковый уровень 91.5 %
Качество диапазона 99.9 %
CRC копии 18C7AB89
Копирование... OK
Ошибок не произошло
Конец отчёта
Скачивание доступно после регистрации!!
Приватный:
Нет (DHT включён)
Размер:
187.60 Мб (196,716,400 байт) » файлов: 3
Участники:
3 раздают, 3 качают (6 участников всего)
Внешние участники:
1 раздают, 0 качают (1 участников всего) [ Обновить ]
Скорость:
106.55 Кб/c 0/c
14:08
122
RSS
Нет комментариев. Ваш будет первым!