Поиск

1959 (1988) Lorez Alexandria — Sings Songs Everyone Knows {King KCD-676}

1959 (1988) Lorez Alexandria — Sings Songs Everyone Knows {King KCD-676}
Стили:
Издатель (лейбл):
Номер по каталогу:
KCD-676
Носитель:
CD
Тип рипа:
image
Аудиокодек:
FLAC (*.flac)
Битрейт аудио:
1
Время звучания:
38:12
Релизёр (источник):
barin99
Лог создания рипа
Exact Audio Copy V1.0 beta 1 from 15. November 2010
EAC extraction logfile from 12. January 2011, 10:46
Lorez Alexandria / Sings songs everyone knows
Used drive : TSSTcorpDVD+-RW TS-L532B Adapter: 1 ID: 0
Read mode : Secure
Utilize accurate stream : Yes
Defeat audio cache : Yes
Make use of C2 pointers : No
Read offset correction : 704
Overread into Lead-In and Lead-Out : No
Fill up missing offset samples with silence : Yes
Delete leading and trailing silent blocks : No
Null samples used in CRC calculations : Yes
Used interface : Native Win32 interface for Win NT & 2000
Used output format : Internal WAV Routines
Sample format : 44.100 Hz; 16 Bit; Stereo
TOC of the extracted CD Track | Start | Length | Start sector | End sector --------------------------------------------------------- 1 | 0:00.00 | 2:52.40 | 0 | 12939 2 | 2:52.40 | 2:53.60 | 12940 | 25974 3 | 5:46.25 | 2:10.25 | 25975 | 35749 4 | 7:56.50 | 2:34.40 | 35750 | 47339 5 | 10:31.15 | 3:02.13 | 47340 | 61002 6 | 13:33.28 | 2:20.15 | 61003 | 71517 7 | 15:53.43 | 4:23.17 | 71518 | 91259 8 | 20:16.60 | 3:07.43 | 91260 | 105327 9 | 23:24.28 | 3:40.35 | 105328 | 121862 10 | 27:04.63 | 4:23.25 | 121863 | 141612 11 | 31:28.13 | 3:06.12 | 141613 | 155574 12 | 34:34.25 | 3:37.15 | 155575 | 171864
Range status and errors
Selected range Filename C:\Documents and Settings\VB\My Documents\BARIN99\Lorez Alexandria - Sings songs everyone knows\Lorez Alexandria - Sings songs everyone knows.wav Peak level 92.7 % Extraction speed 0.3 X Range quality 100.0 % Copy CRC FD9BE0D1 Copy OK
No errors occurred
AccurateRip summary
Track 1 not present in database
Track 2 not present in database
Track 3 not present in database
Track 4 not present in database
Track 5 not present in database
Track 6 not present in database
Track 7 not present in database
Track 8 not present in database
Track 9 not present in database
Track 10 not present in database
Track 11 not present in database
Track 12 not present in database
None of the tracks are present in the AccurateRip database
End of status report
No seeders - write personal message to M0p94ok. Any questions - support@pro-jazz.com.
Нет сидеров - пишите в личку M0p94ok. Есть вопросы - support@pro-jazz.com
19:17
958
Нет комментариев. Ваш будет первым!