Поиск

1959-1962 The Three Sounds - Six Classic Albums, Vol.2 (2014) {Real Gone Jazz RGJCD476} [4CD]

1959-1962 The Three Sounds - Six Classic Albums, Vol.2 (2014) {Real Gone Jazz RGJCD476} [4CD]
Стили:
Страна-производитель диска (релиза):
EU
Дата записи диска:
1959-1962
Дата издания диска:
2014
Издатель (лейбл):
Номер по каталогу:
RGJCD476
Носитель:
CD
Аудиокодек:
FLAC (*.flac)
Тип рипа:
image+.cue
Битрейт аудио:
lossless
Время звучания:
03:56:00
Наличие сканов:
нет
Релизёр (источник):
ssagwebster
Треклист:
 
CD1 {59:19}

LD+3 (With Lou Donaldson) (1959)
01. Three Little Words [6:17]
02. Smooth Groove [5:49]
03. Just Friends [5:10]
04. Blue Moon [3:02]
05. Jump Up [6:31]
06. Don't Take Your Love from Me [5:49]
07. Confirmation [5:33]
Good Deal (1959)
08. Robbins Nest [6:15]
09. Don't Blame Me [5:15]
10. St. Thomas [4:20]
11. Down the Track [5:23]

 
Лог создания рипа
Exact Audio Copy V1.1 from 23. June 2015
EAC extraction logfile from 7. May 2017, 12:44
The Three Sounds / The Three Sounds - 6  Classic Albums - CD1
Used drive  : PLEXTOR DVDR   PX-760A   Adapter: 1  ID: 1
Read mode               : Secure
Utilize accurate stream : Yes
Defeat audio cache      : Yes
Make use of C2 pointers : No
Read offset correction                      : 30
Overread into Lead-In and Lead-Out          : No
Fill up missing offset samples with silence : Yes
Delete leading and trailing silent blocks   : No
Null samples used in CRC calculations       : Yes
Used interface                              : Native Win32 interface for Win NT & 2000
Used output format              : User Defined Encoder
Selected bitrate                : 1024 kBit/s
Quality                         : High
Add ID3 tag                     : No
Command line compressor         : C:\Program Files (x86)\FLAC\flac.exe
Additional command line options : -5 -V -T "ARTIST=%artist%" -T "TITLE=%title%" -T "ALBUM=%albumtitle%" -T "DATE=%year%" -T "TRACKNUMBER=%tracknr%" -T "GENRE=%genre%" -T "COMMENT=[oStereo.ru]" %source%
TOC of the extracted CD
     Track |   Start  |  Length  | Start sector | End sector
    ---------------------------------------------------------
        1  |  0:00.00 |  6:17.00 |         0    |    28274
        2  |  6:17.00 |  5:48.69 |     28275    |    54443
        3  | 12:05.69 |  5:09.34 |     54444    |    77652
        4  | 17:15.28 |  3:01.61 |     77653    |    91288
        5  | 20:17.14 |  6:30.08 |     91289    |   120546
        6  | 26:47.22 |  5:48.34 |    120547    |   146680
        7  | 32:35.56 |  5:32.57 |    146681    |   171637
        8  | 38:08.38 |  6:14.45 |    171638    |   199732
        9  | 44:23.08 |  5:14.23 |    199733    |   223305
       10  | 49:37.31 |  4:19.38 |    223306    |   242768
       11  | 53:56.69 |  5:22.08 |    242769    |   266926
Range status and errors
Selected range
     Filename D:\The Three Sounds - 6 Classic Albums - CD1.wav
     Peak level 98.9 %
     Extraction speed 1.2 X
     Range quality 99.9 %
     Copy CRC 1524AC4C
     Copy OK
No errors occurred
AccurateRip summary
Track  1  accurately ripped (confidence 4)  [3B6077F8]  (AR v2)
Track  2  accurately ripped (confidence 4)  [5AC1AEF6]  (AR v2)
Track  3  accurately ripped (confidence 4)  [B7B08144]  (AR v2)
Track  4  accurately ripped (confidence 4)  [63EE115C]  (AR v2)
Track  5  accurately ripped (confidence 4)  [04EB984E]  (AR v2)
Track  6  accurately ripped (confidence 4)  [7B82F7FA]  (AR v2)
Track  7  accurately ripped (confidence 4)  [9423AC37]  (AR v2)
Track  8  accurately ripped (confidence 3)  [D3363191]  (AR v2)
Track  9  accurately ripped (confidence 3)  [88041FE0]  (AR v2)
Track 10  accurately ripped (confidence 3)  [33393E89]  (AR v2)
Track 11  accurately ripped (confidence 3)  [D9A464F4]  (AR v2)
All tracks accurately ripped
End of status report
==== Log checksum D6E75EA54FF1FEAD8F0634D1824AEE600A47176A55C569AC857287AF2DCD3B84 ====
 
Содержание индексной карты (.CUE)
REM GENRE Jazz
REM DATE 2014
REM DISCID AE0DE70B
REM COMMENT "ExactAudioCopy v1.1"
PERFORMER "The Three Sounds"
TITLE "Six Classic Albums, Vol.2 CD1"
FILE "The Three Sounds - Six Classic Albums, Vol.2 CD1.wav" WAVE
  TRACK 01 AUDIO
    TITLE "Three Little Words"
    PERFORMER "The Three Sounds"
    INDEX 01 00:00:00
  TRACK 02 AUDIO
    TITLE "Smooth Groove"
    PERFORMER "The Three Sounds"
    INDEX 01 06:17:00
  TRACK 03 AUDIO
    TITLE "Just Friends"
    PERFORMER "The Three Sounds"
    INDEX 01 12:05:69
  TRACK 04 AUDIO
    TITLE "Blue Moon"
    PERFORMER "The Three Sounds"
    INDEX 01 17:15:28
  TRACK 05 AUDIO
    TITLE "Jump Up"
    PERFORMER "The Three Sounds"
    INDEX 01 20:17:14
  TRACK 06 AUDIO
    TITLE "Don't Take Your Love from Me"
    PERFORMER "The Three Sounds"
    INDEX 01 26:47:22
  TRACK 07 AUDIO
    TITLE "Confirmation"
    PERFORMER "The Three Sounds"
    INDEX 01 32:35:56
  TRACK 08 AUDIO
    TITLE "Robbins Nest"
    PERFORMER "The Three Sounds"
    INDEX 01 38:08:38
  TRACK 09 AUDIO
    TITLE "Don't Blame Me"
    PERFORMER "The Three Sounds"
    INDEX 01 44:23:08
  TRACK 10 AUDIO
    TITLE "St. Thomas"
    PERFORMER "The Three Sounds"
    INDEX 01 49:37:31
  TRACK 11 AUDIO
    TITLE "Down the Track"
    PERFORMER "The Three Sounds"
    INDEX 01 53:56:69
 
Отчет CUETools
[CUETools log; Date: 06.11.2018 1:24:22; Version: 2.1.5]
[CTDB TOCID: YEZ98b9yvVxxaAtVUdlgqobIAtI-] found.
Track | CTDB Status
  1   | (3/3) Accurately ripped
  2   | (3/3) Accurately ripped
  3   | (3/3) Accurately ripped
  4   | (3/3) Accurately ripped
  5   | (3/3) Accurately ripped
  6   | (3/3) Accurately ripped
  7   | (3/3) Accurately ripped
  8   | (3/3) Accurately ripped
  9   | (3/3) Accurately ripped
 10   | (3/3) Accurately ripped
 11   | (3/3) Accurately ripped
[AccurateRip ID: 0018c4de-00d5d77d-ae0de70b] found.
Track   [  CRC   |   V2   ] Status
 01     [08179d3a|3b6077f8] (0+6/6) Accurately ripped
 02     [b5e5e5be|5ac1aef6] (0+6/6) Accurately ripped
 03     [faf78dfa|b7b08144] (0+6/6) Accurately ripped
 04     [bc0548d2|63ee115c] (0+6/6) Accurately ripped
 05     [34ffeec4|04eb984e] (0+6/6) Accurately ripped
 06     [58a2ca60|7b82f7fa] (0+6/6) Accurately ripped
 07     [fedc7c3d|9423ac37] (0+6/6) Accurately ripped
 08     [8af21964|d3363191] (0+5/5) Accurately ripped
 09     [dfbfd72b|88041fe0] (0+5/5) Accurately ripped
 10     [45c6e2fe|33393e89] (0+5/5) Accurately ripped
 11     [4344b96e|d9a464f4] (0+5/5) Accurately ripped
Track Peak [ CRC32  ] [W/O NULL] [  LOG   ]
 --   98,9 [1524AC4C] [74B2F79E]   CRC32
 01   96,1 [F902C53E] [FA00F7A2]
 02   96,1 [5F922F81] [E06E6D4A]
 03   96,1 [B65DF69C] [98AB3470]
 04   96,1 [CA5DE999] [A594B813]
 05   96,1 [1FB61BFE] [6994D691]
 06   96,1 [EA92F879] [FF7013EC]
 07   96,1 [30CA93A8] [6BBA5422]
 08   98,9 [5472B473] [EA89A6A0]
 09   91,3 [E2FF0D46] [6A20242B]
 10   89,9 [8B11D8DA] [18C33EBE]
 11   96,0 [4D060E1D] [09C6EB89]
 
CD2 {61:47}

Good Deal (1959) cont.
01. Tracy's Blue [3:38]
02. That's All [5:58]
03. Satin Doll [5:53]
04. Soft Winds [4:57]
Out of This World (1962)
05. Girl of My Dreams [3:00]
06. Out of the Past [6:30]
07. Just in Time [6:22]
08. I'll Be Around [3:40]
09. My Silent Love [7:00]
10. Sanctified Sue [4:00]
11. Out of This World [6:35]
12. You Make Me Feel So Young [4:21]

 
Лог создания рипа
Exact Audio Copy V1.1 from 23. June 2015
EAC extraction logfile from 7. May 2017, 14:02
The Three Sounds / The Three Sounds - 6 Classic Albums - CD2
Used drive  : PLEXTOR DVDR   PX-760A   Adapter: 1  ID: 1
Read mode               : Secure
Utilize accurate stream : Yes
Defeat audio cache      : Yes
Make use of C2 pointers : No
Read offset correction                      : 30
Overread into Lead-In and Lead-Out          : No
Fill up missing offset samples with silence : Yes
Delete leading and trailing silent blocks   : No
Null samples used in CRC calculations       : Yes
Used interface                              : Native Win32 interface for Win NT & 2000
Used output format              : User Defined Encoder
Selected bitrate                : 1024 kBit/s
Quality                         : High
Add ID3 tag                     : No
Command line compressor         : C:\Program Files (x86)\FLAC\flac.exe
Additional command line options : -5 -V -T "ARTIST=%artist%" -T "TITLE=%title%" -T "ALBUM=%albumtitle%" -T "DATE=%year%" -T "TRACKNUMBER=%tracknr%" -T "GENRE=%genre%" -T "COMMENT=[oStereo.ru]" %source%
TOC of the extracted CD
     Track |   Start  |  Length  | Start sector | End sector
    ---------------------------------------------------------
        1  |  0:00.00 |  3:37.18 |         0    |    16292
        2  |  3:37.18 |  5:57.51 |     16293    |    43118
        3  |  9:34.69 |  5:52.14 |     43119    |    69532
        4  | 15:27.08 |  4:56.33 |     69533    |    91765
        5  | 20:23.41 |  2:59.16 |     91766    |   105206
        6  | 23:22.57 |  6:29.62 |    105207    |   134443
        7  | 29:52.44 |  6:21.19 |    134444    |   163037
        8  | 36:13.63 |  3:39.60 |    163038    |   179522
        9  | 39:53.48 |  6:59.44 |    179523    |   210991
       10  | 46:53.17 |  3:59.20 |    210992    |   228936
       11  | 50:52.37 |  6:34.15 |    228937    |   258501
       12  | 57:26.52 |  4:20.43 |    258502    |   278044
Range status and errors
Selected range
     Filename D:\The Three Sounds - 6 Classic Albums - CD2.wav
     Peak level 100.0 %
     Extraction speed 1.2 X
     Range quality 100.0 %
     Copy CRC 951FB724
     Copy OK
No errors occurred
AccurateRip summary
Track  1  accurately ripped (confidence 3)  [70BDD4FD]  (AR v2)
Track  2  accurately ripped (confidence 3)  [0427192F]  (AR v2)
Track  3  accurately ripped (confidence 3)  [2EA0722D]  (AR v2)
Track  4  accurately ripped (confidence 3)  [906C326C]  (AR v2)
Track  5  accurately ripped (confidence 4)  [52DF9840]  (AR v2)
Track  6  accurately ripped (confidence 4)  [BC31B3A6]  (AR v2)
Track  7  accurately ripped (confidence 4)  [B96CD643]  (AR v2)
Track  8  accurately ripped (confidence 4)  [591AA88E]  (AR v2)
Track  9  accurately ripped (confidence 4)  [2512F3DD]  (AR v2)
Track 10  accurately ripped (confidence 4)  [732AC6DC]  (AR v2)
Track 11  accurately ripped (confidence 4)  [2DA9BDB0]  (AR v2)
Track 12  accurately ripped (confidence 3)  [1D466BBC]  (AR v2)
All tracks accurately ripped
End of status report
==== Log checksum ADCF0CAD407BED2B14DDAF58ABFF2D024FEA8626249363FCA96EBB66FD54948A ====
 
Содержание индексной карты (.CUE)
REM GENRE Jazz
REM DATE 2014
REM DISCID AD0E7B0C
REM COMMENT "ExactAudioCopy v1.1"
PERFORMER "The Three Sounds"
TITLE "Six Classic Albums, Vol.2 CD2"
FILE "The Three Sounds - Six Classic Albums, Vol.2 CD2.wav" WAVE
  TRACK 01 AUDIO
    TITLE "Tracy's Blue"
    PERFORMER "The Three Sounds"
    INDEX 01 00:00:00
  TRACK 02 AUDIO
    TITLE "That's All"
    PERFORMER "The Three Sounds"
    INDEX 01 03:37:18
  TRACK 03 AUDIO
    TITLE "Satin Doll"
    PERFORMER "The Three Sounds"
    INDEX 01 09:34:69
  TRACK 04 AUDIO
    TITLE "Soft Winds"
    PERFORMER "The Three Sounds"
    INDEX 01 15:27:08
  TRACK 05 AUDIO
    TITLE "Girl of My Dreams"
    PERFORMER "The Three Sounds"
    INDEX 01 20:23:41
  TRACK 06 AUDIO
    TITLE "Out of the Past"
    PERFORMER "The Three Sounds"
    INDEX 01 23:22:57
  TRACK 07 AUDIO
    TITLE "Just in Time"
    PERFORMER "The Three Sounds"
    INDEX 01 29:52:44
  TRACK 08 AUDIO
    TITLE "I'll Be Around"
    PERFORMER "The Three Sounds"
    INDEX 01 36:13:63
  TRACK 09 AUDIO
    TITLE "My Silent Love"
    PERFORMER "The Three Sounds"
    INDEX 01 39:53:48
  TRACK 10 AUDIO
    TITLE "Sanctified Sue"
    PERFORMER "The Three Sounds"
    INDEX 01 46:53:17
  TRACK 11 AUDIO
    TITLE "Out of This World"
    PERFORMER "The Three Sounds"
    INDEX 01 50:52:37
  TRACK 12 AUDIO
    TITLE "You Make Me Feel So Young"
    PERFORMER "The Three Sounds"
    INDEX 01 57:26:52
 
Отчет CUETools
[CUETools log; Date: 06.11.2018 1:24:32; Version: 2.1.5]
[CTDB TOCID: 6nqUDhWC7I5LlGyPtGq2E8vFRBY-] found.
Track | CTDB Status
  1   | (3/3) Accurately ripped
  2   | (3/3) Accurately ripped
  3   | (3/3) Accurately ripped
  4   | (3/3) Accurately ripped
  5   | (3/3) Accurately ripped
  6   | (3/3) Accurately ripped
  7   | (3/3) Accurately ripped
  8   | (3/3) Accurately ripped
  9   | (3/3) Accurately ripped
 10   | (3/3) Accurately ripped
 11   | (3/3) Accurately ripped
 12   | (3/3) Accurately ripped
[AccurateRip ID: 001b26c7-00ff5f67-ad0e7b0c] found.
Track   [  CRC   |   V2   ] Status
 01     [7d6d9552|70bdd4fd] (0+5/5) Accurately ripped
 02     [4d1a4089|0427192f] (0+5/5) Accurately ripped
 03     [f109a0a4|2ea0722d] (0+5/5) Accurately ripped
 04     [d798444f|906c326c] (0+5/5) Accurately ripped
 05     [d89d18aa|52df9840] (0+6/6) Accurately ripped
 06     [76c33778|bc31b3a6] (0+6/6) Accurately ripped
 07     [34256901|b96cd643] (0+6/6) Accurately ripped
 08     [e5b5920c|591aa88e] (0+6/6) Accurately ripped
 09     [5f82e888|2512f3dd] (0+6/6) Accurately ripped
 10     [2537ecb1|732ac6dc] (0+6/6) Accurately ripped
 11     [9d2818a5|2da9bdb0] (0+6/6) Accurately ripped
 12     [172b2b27|1d466bbc] (0+4/4) Accurately ripped
Track Peak [ CRC32  ] [W/O NULL] [  LOG   ]
 --  100,0 [951FB724] [DAB3E818]   CRC32
 01   88,1 [51220C1C] [5CA0842F]
 02   92,5 [14265AA6] [905D2453]
 03   91,8 [0973AB4A] [B8332FDE]
 04   89,9 [C7B332C9] [D133558B]
 05   99,9 [33DA4B84] [4719E841]
 06   97,2 [B2CA57CA] [83779B3A]
 07   99,5 [A8599306] [901AFD37]
 08   98,4 [6021C48E] [D618E211]
 09   97,1 [9566A088] [483ED997]
 10  100,0 [DE65E629] [B5548E5F]
 11   99,9 [CC8F74F9] [D7E02E57]
 12   99,7 [4516C7EB] [5A4C3C8F]
 
CD3 {61:34}

Black Orchid (1962)
01. Black Orchid [5:20]
02. A Foggy Day [6:43]
03. For All We Know [5:28]
04. Oh Well, Oh Well [3:43]
05. At Last [5:34]
06. Secret Love [5:41]
07. Don't Go, Don't Go [5:05]
08. Saucer Eyes [4:39]
Blue Genes (1962)
09. Mr. Wonderful [5:28]
10. Autumn in New York [5:45]
11. Love Somebody [4:09]
12. Blue Genes [4:07]

 
Лог создания рипа
Exact Audio Copy V1.1 from 23. June 2015
EAC extraction logfile from 7. May 2017, 15:02
The Three Sounds / The Three Sounds - 6 Classic Albums - CD3
Used drive  : PLEXTOR DVDR   PX-760A   Adapter: 1  ID: 1
Read mode               : Secure
Utilize accurate stream : Yes
Defeat audio cache      : Yes
Make use of C2 pointers : No
Read offset correction                      : 30
Overread into Lead-In and Lead-Out          : No
Fill up missing offset samples with silence : Yes
Delete leading and trailing silent blocks   : No
Null samples used in CRC calculations       : Yes
Used interface                              : Native Win32 interface for Win NT & 2000
Used output format              : User Defined Encoder
Selected bitrate                : 1024 kBit/s
Quality                         : High
Add ID3 tag                     : No
Command line compressor         : C:\Program Files (x86)\FLAC\flac.exe
Additional command line options : -5 -V -T "ARTIST=%artist%" -T "TITLE=%title%" -T "ALBUM=%albumtitle%" -T "DATE=%year%" -T "TRACKNUMBER=%tracknr%" -T "GENRE=%genre%" -T "COMMENT=[oStereo.ru]" %source%
TOC of the extracted CD
     Track |   Start  |  Length  | Start sector | End sector
    ---------------------------------------------------------
        1  |  0:00.00 |  5:19.31 |         0    |    23955
        2  |  5:19.31 |  6:42.22 |     23956    |    54127
        3  | 12:01.53 |  5:27.31 |     54128    |    78683
        4  | 17:29.09 |  3:42.04 |     78684    |    95337
        5  | 21:11.13 |  5:33.03 |     95338    |   120315
        6  | 26:44.16 |  5:40.40 |    120316    |   145855
        7  | 32:24.56 |  5:04.13 |    145856    |   168668
        8  | 37:28.69 |  4:38.22 |    168669    |   189540
        9  | 42:07.16 |  5:27.33 |    189541    |   214098
       10  | 47:34.49 |  5:44.31 |    214099    |   239929
       11  | 53:19.05 |  4:08.71 |    239930    |   258600
       12  | 57:28.01 |  4:06.05 |    258601    |   277055
Range status and errors
Selected range
     Filename D:\The Three Sounds - 6 Classic Albums - CD3.wav
     Peak level 99.7 %
     Extraction speed 1.2 X
     Range quality 100.0 %
     Copy CRC 7EA67D3D
     Copy OK
No errors occurred
AccurateRip summary
Track  1  accurately ripped (confidence 4)  [1FECD2E7]  (AR v2)
Track  2  accurately ripped (confidence 4)  [E655BFDE]  (AR v2)
Track  3  accurately ripped (confidence 4)  [283AADF6]  (AR v2)
Track  4  accurately ripped (confidence 4)  [2C8B5057]  (AR v2)
Track  5  accurately ripped (confidence 4)  [42CAF3B2]  (AR v2)
Track  6  accurately ripped (confidence 4)  [84D16AF0]  (AR v2)
Track  7  accurately ripped (confidence 4)  [FE88B0C1]  (AR v2)
Track  8  accurately ripped (confidence 4)  [B661F56E]  (AR v2)
Track  9  accurately ripped (confidence 4)  [CD0CCBDD]  (AR v2)
Track 10  accurately ripped (confidence 4)  [782EE48C]  (AR v2)
Track 11  accurately ripped (confidence 4)  [2C7C7813]  (AR v2)
Track 12  accurately ripped (confidence 4)  [05A09C6E]  (AR v2)
All tracks accurately ripped
End of status report
==== Log checksum 588791D2952534D8823291D0AC32127A5BA8890BBA006243746D5D326D296C06 ====
 
Содержание индексной карты (.CUE)
REM GENRE Jazz
REM DATE 2014
REM DISCID 8B0E6E0C
REM COMMENT "ExactAudioCopy v1.1"
PERFORMER "The Three Sounds"
TITLE "Six Classic Albums, Vol.2 CD3"
FILE "The Three Sounds - Six Classic Albums, Vol.2 CD3.wav" WAVE
  TRACK 01 AUDIO
    TITLE "Black Orchid"
    PERFORMER "The Three Sounds"
    INDEX 01 00:00:00
  TRACK 02 AUDIO
    TITLE "A Foggy Day"
    PERFORMER "The Three Sounds"
    INDEX 01 05:19:31
  TRACK 03 AUDIO
    TITLE "For All We Know"
    PERFORMER "The Three Sounds"
    INDEX 01 12:01:53
  TRACK 04 AUDIO
    TITLE "Oh Well, Oh Well"
    PERFORMER "The Three Sounds"
    INDEX 01 17:29:09
  TRACK 05 AUDIO
    TITLE "At Last"
    PERFORMER "The Three Sounds"
    INDEX 01 21:11:13
  TRACK 06 AUDIO
    TITLE "Secret Love"
    PERFORMER "The Three Sounds"
    INDEX 01 26:44:16
  TRACK 07 AUDIO
    TITLE "Don't Go, Don't Go"
    PERFORMER "The Three Sounds"
    INDEX 01 32:24:56
  TRACK 08 AUDIO
    TITLE "Saucer Eyes"
    PERFORMER "The Three Sounds"
    INDEX 01 37:28:69
  TRACK 09 AUDIO
    TITLE "Mr. Wonderful"
    PERFORMER "The Three Sounds"
    INDEX 01 42:07:16
  TRACK 10 AUDIO
    TITLE "Autumn in New York"
    PERFORMER "The Three Sounds"
    INDEX 01 47:34:49
  TRACK 11 AUDIO
    TITLE "Love Somebody"
    PERFORMER "The Three Sounds"
    INDEX 01 53:19:05
  TRACK 12 AUDIO
    TITLE "Blue Genes"
    PERFORMER "The Three Sounds"
    INDEX 01 57:28:01
 
Отчет CUETools
[CUETools log; Date: 06.11.2018 1:24:42; Version: 2.1.5]
[CTDB TOCID: tiCFrs08rV8y_SDbgfLpWXPpjQs-] found.
Track | CTDB Status
  1   | (3/3) Accurately ripped
  2   | (3/3) Accurately ripped
  3   | (3/3) Accurately ripped
  4   | (3/3) Accurately ripped
  5   | (3/3) Accurately ripped
  6   | (3/3) Accurately ripped
  7   | (3/3) Accurately ripped
  8   | (3/3) Accurately ripped
  9   | (3/3) Accurately ripped
 10   | (3/3) Accurately ripped
 11   | (3/3) Accurately ripped
 12   | (3/3) Accurately ripped
[AccurateRip ID: 001c79be-0107bf80-8b0e6e0c] found.
Track   [  CRC   |   V2   ] Status
 01     [f2c269d9|1fecd2e7] (0+6/6) Accurately ripped
 02     [ce5d55c3|e655bfde] (0+6/6) Accurately ripped
 03     [64659b11|283aadf6] (0+6/6) Accurately ripped
 04     [c3b20873|2c8b5057] (0+6/6) Accurately ripped
 05     [f4491d4d|42caf3b2] (0+6/6) Accurately ripped
 06     [2a532288|84d16af0] (0+6/6) Accurately ripped
 07     [506385f9|fe88b0c1] (0+6/6) Accurately ripped
 08     [7c342e57|b661f56e] (0+6/6) Accurately ripped
 09     [c874c6e1|cd0ccbdd] (0+6/6) Accurately ripped
 10     [a6b821bf|782ee48c] (0+6/6) Accurately ripped
 11     [f21ea7b6|2c7c7813] (0+6/6) Accurately ripped
 12     [e0533837|05a09c6e] (0+6/6) Accurately ripped
Track Peak [ CRC32  ] [W/O NULL] [  LOG   ]
 --   99,7 [7EA67D3D] [76303CEB]   CRC32
 01   94,8 [88F769F0] [E125B848]
 02   99,1 [8A90D723] [63F09DA9]
 03   95,2 [0E3B7A2C] [C18647D9]
 04   94,7 [2A1CFEA3] [0C60BAB6]
 05   93,3 [E8AB773A] [514F2BE3]
 06   96,9 [CBC1D936] [2A1B7781]
 07   98,5 [D247A8B8] [B6E3425C]
 08   95,5 [71527208] [9299115D]
 09   99,7 [F41A8443] [5A1FC24E]
 10   88,8 [D8BDCF24] [DD92F297]
 11   85,0 [D8998139] [A0BDE5A3]
 12   92,3 [D1727339] [D0AAF4FA]
 
CD4 {53:20}

Blue Genes (1962) cont.
01. Red Sails in The Sunset [3:42]
02. In a Mellow Tone [4:57]
03. Gina, My Love [3:03]
04. Whims of Chamberland [3:54]
Anita O'Day & The Three Sounds (1962)
05. When the World Was Young [3:31]
06. Someday My Prince Will Come [4:25]
07. All Too Soon [3:20]
08. My Heart Stood Still [3:37]
09. My Ship [4:34]
10. Leave It to Me [4:16]
11. Whisper Not [2:58]
12. Blues Five [4:41]
13. (Fly Me to the Moon) In Other Words [3:50]
14. You and the Night and the Music [2:38]

 
Лог создания рипа
Exact Audio Copy V1.1 from 23. June 2015
EAC extraction logfile from 7. May 2017, 15:50
The Three Sounds / The Three Sounds - 6 Classic Albums - CD4
Used drive  : PLEXTOR DVDR   PX-760A   Adapter: 1  ID: 1
Read mode               : Secure
Utilize accurate stream : Yes
Defeat audio cache      : Yes
Make use of C2 pointers : No
Read offset correction                      : 30
Overread into Lead-In and Lead-Out          : No
Fill up missing offset samples with silence : Yes
Delete leading and trailing silent blocks   : No
Null samples used in CRC calculations       : Yes
Used interface                              : Native Win32 interface for Win NT & 2000
Used output format              : User Defined Encoder
Selected bitrate                : 1024 kBit/s
Quality                         : High
Add ID3 tag                     : No
Command line compressor         : C:\Program Files (x86)\FLAC\flac.exe
Additional command line options : -5 -V -T "ARTIST=%artist%" -T "TITLE=%title%" -T "ALBUM=%albumtitle%" -T "DATE=%year%" -T "TRACKNUMBER=%tracknr%" -T "GENRE=%genre%" -T "COMMENT=[oStereo.ru]" %source%
TOC of the extracted CD
     Track |   Start  |  Length  | Start sector | End sector
    ---------------------------------------------------------
        1  |  0:00.00 |  3:41.16 |         0    |    16590
        2  |  3:41.16 |  4:56.08 |     16591    |    38798
        3  |  8:37.24 |  3:02.63 |     38799    |    52511
        4  | 11:40.12 |  3:53.71 |     52512    |    70057
        5  | 15:34.08 |  3:30.02 |     70058    |    85809
        6  | 19:04.10 |  4:24.48 |     85810    |   105657
        7  | 23:28.58 |  3:19.56 |    105658    |   120638
        8  | 26:48.39 |  3:36.51 |    120639    |   136889
        9  | 30:25.15 |  4:33.71 |    136890    |   157435
       10  | 34:59.11 |  4:15.59 |    157436    |   176619
       11  | 39:14.70 |  2:57.41 |    176620    |   189935
       12  | 42:12.36 |  4:40.40 |    189936    |   210975
       13  | 46:53.01 |  3:49.01 |    210976    |   228151
       14  | 50:42.02 |  2:37.62 |    228152    |   239988
Range status and errors
Selected range
     Filename D:\The Three Sounds - 6 Classic Albums - CD4.wav
     Peak level 100.0 %
     Extraction speed 1.2 X
     Range quality 99.9 %
     Copy CRC 641FFD21
     Copy OK
No errors occurred
AccurateRip summary
Track  1  accurately ripped (confidence 4)  [2E434C3C]  (AR v2)
Track  2  accurately ripped (confidence 4)  [AA8EBED6]  (AR v2)
Track  3  accurately ripped (confidence 4)  [A8BF93F8]  (AR v2)
Track  4  accurately ripped (confidence 4)  [77B0E792]  (AR v2)
Track  5  accurately ripped (confidence 4)  [9DEA8EA7]  (AR v2)
Track  6  accurately ripped (confidence 4)  [BD764014]  (AR v2)
Track  7  accurately ripped (confidence 4)  [AC2F22AD]  (AR v2)
Track  8  accurately ripped (confidence 4)  [909FD41F]  (AR v2)
Track  9  accurately ripped (confidence 4)  [3712EB34]  (AR v2)
Track 10  accurately ripped (confidence 4)  [1A5B34B5]  (AR v2)
Track 11  accurately ripped (confidence 4)  [61EAA999]  (AR v2)
Track 12  accurately ripped (confidence 4)  [F5A5FB1B]  (AR v2)
Track 13  accurately ripped (confidence 4)  [16BE1432]  (AR v2)
Track 14  accurately ripped (confidence 4)  [6F336E9D]  (AR v2)
All tracks accurately ripped
End of status report
==== Log checksum 6C46B0372E5289546357C49A7C4EDE542BE7741A3D0CF5BA6D33F74AB716E5C4 ====
 
Содержание индексной карты (.CUE)
REM GENRE Jazz
REM DATE 2014
REM DISCID 9C0C7F0E
REM COMMENT "ExactAudioCopy v1.1"
PERFORMER "The Three Sounds"
TITLE "Six Classic Albums, Vol.2 CD4"
FILE "The Three Sounds - Six Classic Albums, Vol.2 CD4.wav" WAVE
  TRACK 01 AUDIO
    TITLE "Red Sails in the Sunset"
    PERFORMER "The Three Sounds"
    INDEX 01 00:00:00
  TRACK 02 AUDIO
    TITLE "In a Mellow Tone"
    PERFORMER "The Three Sounds"
    INDEX 01 03:41:16
  TRACK 03 AUDIO
    TITLE "Gina, My Love"
    PERFORMER "The Three Sounds"
    INDEX 01 08:37:24
  TRACK 04 AUDIO
    TITLE "Whims of Chamberland"
    PERFORMER "The Three Sounds"
    INDEX 01 11:40:12
  TRACK 05 AUDIO
    TITLE "When the World Was Young"
    PERFORMER "The Three Sounds"
    INDEX 01 15:34:08
  TRACK 06 AUDIO
    TITLE "Someday My Prince Will Come"
    PERFORMER "The Three Sounds"
    INDEX 01 19:04:10
  TRACK 07 AUDIO
    TITLE "All Too Soon"
    PERFORMER "The Three Sounds"
    INDEX 01 23:28:58
  TRACK 08 AUDIO
    TITLE "My Heart Stood Still"
    PERFORMER "The Three Sounds"
    INDEX 01 26:48:39
  TRACK 09 AUDIO
    TITLE "My Ship"
    PERFORMER "The Three Sounds"
    INDEX 01 30:25:15
  TRACK 10 AUDIO
    TITLE "Leave It to Me"
    PERFORMER "The Three Sounds"
    INDEX 01 34:59:11
  TRACK 11 AUDIO
    TITLE "Whisper Not"
    PERFORMER "The Three Sounds"
    INDEX 01 39:14:70
  TRACK 12 AUDIO
    TITLE "Blues Five"
    PERFORMER "The Three Sounds"
    INDEX 01 42:12:36
  TRACK 13 AUDIO
    TITLE "(Fly Me to the Moon) In Other Words"
    PERFORMER "The Three Sounds"
    INDEX 01 46:53:01
  TRACK 14 AUDIO
    TITLE "You and the Night and the Music"
    PERFORMER "The Three Sounds"
    INDEX 01 50:42:02
 
Отчет CUETools
[CUETools log; Date: 06.11.2018 1:24:50; Version: 2.1.5]
[CTDB TOCID: gqPSNwJqSCbOL0qnwA8QDYC4B4M-] found.
Track | CTDB Status
  1   | (3/3) Accurately ripped
  2   | (3/3) Accurately ripped
  3   | (3/3) Accurately ripped
  4   | (3/3) Accurately ripped
  5   | (3/3) Accurately ripped
  6   | (3/3) Accurately ripped
  7   | (3/3) Accurately ripped
  8   | (3/3) Accurately ripped
  9   | (3/3) Accurately ripped
 10   | (3/3) Accurately ripped
 11   | (3/3) Accurately ripped
 12   | (3/3) Accurately ripped
 13   | (3/3) Accurately ripped
 14   | (3/3) Accurately ripped
[AccurateRip ID: 001becb2-012976a9-9c0c7f0e] found.
Track   [  CRC   |   V2   ] Status
 01     [5ecc73e0|2e434c3c] (0+5/5) Accurately ripped
 02     [de319cce|aa8ebed6] (0+5/5) Accurately ripped
 03     [aa6a63fa|a8bf93f8] (0+5/5) Accurately ripped
 04     [92f5e1a0|77b0e792] (0+5/5) Accurately ripped
 05     [7e238202|9dea8ea7] (0+5/5) Accurately ripped
 06     [1f748f28|bd764014] (0+5/5) Accurately ripped
 07     [53056d5d|ac2f22ad] (0+5/5) Accurately ripped
 08     [91c0a746|909fd41f] (0+5/5) Accurately ripped
 09     [ac63a7c3|3712eb34] (0+5/5) Accurately ripped
 10     [56ee0852|1a5b34b5] (0+5/5) Accurately ripped
 11     [a8ec7317|61eaa999] (0+5/5) Accurately ripped
 12     [3d917e4b|f5a5fb1b] (0+5/5) Accurately ripped
 13     [be2b8812|16be1432] (0+5/5) Accurately ripped
 14     [8b8d3173|6f336e9d] (0+5/5) Accurately ripped
Track Peak [ CRC32  ] [W/O NULL] [  LOG   ]
 --  100,0 [641FFD21] [2BAB589D]   CRC32
 01   88,2 [7B7D759B] [F13B450A]
 02   99,4 [8BBABE19] [B4647989]
 03  100,0 [5EDC18CB] [683480A6]
 04  100,0 [C0585BC9] [1824F9E0]
 05   94,1 [80DE807E] [0B8E9709]
 06   84,9 [34D0C331] [1B18C657]
 07   91,8 [287F77F4] [13E1C9C4]
 08   97,9 [155709A8] [9DE9460C]
 09   78,3 [51837433] [B686B149]
 10   96,9 [46C9B022] [8811F731]
 11   83,8 [C4B0B471] [45B1637A]
 12   96,4 [885D70BA] [CEAD96AE]
 13   87,1 [303A70CA] [0B488563]
 14   87,8 [332B2CD3] [12D6F104]
Приватный:
Нет (DHT включён)
Размер:
1.34 Гб (1,439,320,568 байт) » файлов: 28
Участники:
4 раздают, 0 качают (4 участников всего)
Внешние участники:
8 раздают, 2 качают (10 участников всего) [ Обновить ]
20:41
8
Нет комментариев. Ваш будет первым!