Вы используете незарегистрированную версию компонента "Вкладки"!

Поиск

1958 Peggy Lee - Miss Wonderful! (2019) {Decca DL 8816} [24-44,1]

1958 Peggy Lee - Miss Wonderful! (2019) {Decca DL 8816} [24-44,1]
Стили:
Дата издания диска:
1958
Дата переиздания диска:
2019
Издатель (лейбл):
Номер по каталогу:
DL 8816
Носитель:
WEB
Формат:
PCM
Тип рипа:
tracks+.cue
Контейнер:
FLAC (*.flac)
Количество каналов:
2.0
Разрядность/ЧД:
24/44,1
Битрейт аудио:
lossless
Время звучания:
00:35:36
Наличие сканов:
web
Релизёр (источник):
M0p94ok
Лог проверки качества
foobar2000 1.4.3 / Dynamic Range Meter 1.1.1
log date: 2020-05-23 17:04:03

--------------------------------------------------------------------------------
Analyzed: Peggy Lee / Miss Wonderful!
--------------------------------------------------------------------------------

DR         Peak         RMS     Duration Track
--------------------------------------------------------------------------------
DR15      -5.40 dB   -24.06 dB      3:21 01-Mister Wonderful (Remastered)
DR14      -2.60 dB   -19.73 dB      2:59 02-They Can't Take That Away From Me (Remastered)
DR17      -2.97 dB   -23.54 dB      2:31 03-Where Flamingos Fly (Remastered)
DR13      -4.08 dB   -19.41 dB      2:48 04-You've Got To See Mama Every Night (Remastered)
DR13      -2.96 dB   -20.17 dB      3:05 05-The Come Back (Remastered)
DR15      -2.73 dB   -21.24 dB      2:38 06-Take A Little Time To Smile (Remastered)
DR15      -2.66 dB   -20.19 dB      2:59 07-I Don't Know Enough About You (Remastered)
DR12      -5.65 dB   -23.10 dB      2:47 08-Joe, Joe, Joey (Remastered)
DR14      -3.86 dB   -21.54 dB      2:58 09-Crazy In The Heart (Remastered)
DR15      -4.54 dB   -23.35 dB      3:09 10-You Oughta Be Mine (Remastered)
DR14      -4.79 dB   -22.33 dB      3:17 11-We Laughed At Love (Remastered)
DR15      -3.47 dB   -21.43 dB      3:09 12-That's Alright, Honey (Remastered)
--------------------------------------------------------------------------------

Number of tracks:  12
Official DR value: DR14

Samplerate:        44100 Hz
Channels:          2
Bits per sample:   24
Bitrate:           1179 kbps
Codec:             FLAC
================================================================================
Any questions - support@pro-jazz.com. Есть вопросы - support@pro-jazz.com
17:05
250
Нет комментариев. Ваш будет первым!