Поиск

1958 Paul Chambers Quintet - Paul Chambers Quintet (2021) {Music Manager} [24-48]

1958 Paul Chambers Quintet - Paul Chambers Quintet (2021) {Music Manager} [24-48]
Стили:
Дата записи диска:
19 мая 1957
Место записи:
Rudy Van Gelder Studio, Englewood Cliffs, New Jersey, USA
Дата переиздания диска:
22 июня 2021
Издатель (лейбл):
Носитель:
WEB
Формат:
PCM
Тип рипа:
tracks
Контейнер:
FLAC (*.flac)
Количество каналов:
2.0
Разрядность/ЧД:
24/48
Битрейт аудио:
lossless
Наличие сканов:
только обложка

01 - Minor Run-Down 07:38
02 - The Hand of Love 06:23
03 - Softly as in a Morning Sunrise 03:07
04 - Four Strings 05:27
05 - What's New 05:40
06 - Beauteous 08:08

Состав:
Лог проверки качества
foobar2000 1.4.6 / Dynamic Range Meter 1.1.1
log date: 2021-10-09 08:48:16
--------------------------------------------------------------------------------
Analyzed: Paul Chambers Quintet / Paul Chambers Quintet
--------------------------------------------------------------------------------
DR         Peak         RMS     Duration Track
--------------------------------------------------------------------------------
DR11       0.00 dB   -13.67 dB      7:38 01-Minor Run-Down
DR10       0.00 dB   -12.21 dB      6:23 02-The Hand of Love
DR13      -0.30 dB   -14.15 dB      3:08 03-Softly as in a Morning Sunrise
DR10       0.00 dB   -12.20 dB      5:27 04-Four Strings
DR12       0.00 dB   -14.00 dB      5:40 05-What's New
DR12       0.00 dB   -14.06 dB      8:09 06-Beauteous
--------------------------------------------------------------------------------
Number of tracks:  6
Official DR value: DR11
Samplerate:        48000 Hz
Channels:          2
Bits per sample:   24
Bitrate:           1428 kbps
Codec:             FLAC
================================================================================
Приватный:
Нет (DHT включён)
Размер:
381.39 Мб (399,919,519 байт) » файлов: 10
Участники:
93 раздают, 0 качают (93 участников всего)
Внешние участники:
2 раздают, 1 качают (3 участников всего) [ Обновить ]
12:12
283
Нет комментариев. Ваш будет первым!